ML
     
  Уважаемый Гость!
Вы можете поддержать проект и зарегистрироваться у наших партнеров - онлайн-стратегия MyLands. При регистрации в игре Вы получите код, который сможете активировать после регистрации на pirat.ca и получить 1000 дублонов.

Ваш код:
21acd5966619d49ad0b90c3305467b4646cc11a8
 
     

Бес (Денис Родимин) [2008 г., триллер, драма, DVDRip]

Ответить на тему
 
Автор
Сообщение

Пост 06-Авг-2013 12:49

[Q] 

zhentik07

Штурман

Бес - Производство: Россия
Жанр: триллер, драма
Год выпуска: 2008 г.
Продолжительность: 01:34:57
Российская премьера: 30 апреля 2008
Дата выхода DVD: 14 мая 2009
Режиссер: Денис Родимин

В ролях: Анастасия Мельникова, Евгений Сидихин, Сергей Барковский, Сергей Перегудов.
- : К практикующему психологу Насте приходит обаятельный бизнесмен Станислав. Помощь требуется не ему, а его компаньону Никите, у которого в последнее время начались проблемы с неконтролируемым гневом, что заметно вредит их общему бизнесу. Естественно, респектабельный бизнесмен не пойдет за психологической помощью сам, поэтому за солидный гонорар Настя соглашается работать «под прикрытием», и Станислав устраивает ее в их фирму под видом референта. Ей предстоит войти в доверие к своему новому пациенту и подавить в нем эту агрессию. Но забота ли о партнере толкнула Станислава обратиться за помощью? Может, Настя — всего лишь пешка в его игре, а перемены в личности Никиты — часть коварного плана?...-Рекомендован для просмотра лицам старше 16 лет- Качество видео: DVDRip
Контейнер: MKV
Видео кодек: H.264
Аудио кодек: AC3
Видео: 720х400 (16:9), 25,000 fps, AVC (x264), [email protected] , ~ 913 kbps avg, 0.127bit/pixel
Аудио: 48.0 kHz, AC3, (Front: L R) , 2 ch ~384Kbps avg
Cубтитры: отсутствуют
Общее
Уникальный идентификатор : 227697956171701892914757469580903664368 (0xAB4D07FD294CD1F4863D0D033F754AF0)
Полное имя : D:\МОИ ФАЙЛЫ\Видео\Фильмы\Bes.mkv
Формат : Matroska
Версия формата : Version 1
Размер файла : 899 Мбайт
Продолжительность : 1 ч. 34 м.
Общий поток : 1323 Кбит/сек
Дата кодирования : UTC 2009-09-23 22:55:20
Программа кодирования : mkvmerge v2.4.1 ('Use Me') built on Dec 5 2008 18:30:05
Библиотека кодирования : libebml v0.7.7 + libmatroska v0.8.1
Видео
Идентификатор : 1
Формат : AVC
Формат/Информация : Advanced Video Codec
Профиль формата : [email protected]
Параметр CABAC формата : Да
Параметр ReFrames формата : 5 кадров
Идентификатор кодека : V_MPEG4/ISO/AVC
Продолжительность : 1 ч. 34 м.
Битрейт : 913 Кбит/сек
Номинальный битрейт : 1000 Кбит/сек
Ширина : 720 пикселей
Высота : 400 пикселей
Соотношение сторон : 16:9
Режим частоты кадров : Постоянный
Частота кадров : 25,000 кадров/сек
Цветовое пространство : YUV
Субдискретизация насыщенности : 4:2:0
Битовая глубина : 8 бит
Тип развёртки : Прогрессивная
Бит/(Пиксели*Кадры) : 0.127
Размер потока : 620 Мбайт (69%)
Библиотека кодирования : x264 core 68 r1183M f21daff
Настройки программы : cabac=1 / ref=5 / deblock=1:-1:-1 / analyse=0x3:0x133 / me=umh / subme=7 / psy_rd=1.0:0.0 / mixed_ref=1 / me_range=16 / chroma_me=1 / trellis=2 / 8x8dct=1 / cqm=0 / deadzone=21,11 / chroma_qp_offset=-2 / threads=6 / nr=0 / decimate=1 / mbaff=0 / bframes=3 / b_pyramid=1 / b_adapt=2 / b_bias=0 / direct=3 / wpredb=1 / keyint=250 / keyint_min=25 / scenecut=40 / rc=2pass / bitrate=1000 / ratetol=1.0 / qcomp=0.60 / qpmin=10 / qpmax=51 / qpstep=4 / cplxblur=20.0 / qblur=0.5 / ip_ratio=1.40 / pb_ratio=1.30 / aq=1:1.00
Язык : English
Default : Да
Forced : Нет
Аудио
Идентификатор : 2
Формат : AC-3
Формат/Информация : Audio Coding 3
Расширение режима : CM (complete main)
Параметр Endianness формата : Big
Идентификатор кодека : A_AC3
Продолжительность : 1 ч. 34 м.
Вид битрейта : Постоянный
Битрейт : 384 Кбит/сек
Каналы : 2 канала
Расположение каналов : Front: L R
Частота : 48,0 КГц
Битовая глубина : 16 бит
Метод сжатия : С потерями
Задержка видео : 250 мс.
Размер потока : 261 Мбайт (29%)
Default : Да
Forced : Нет
-
Download / Скачать

Хотите скачать бесплатно? Зарегистрируйтесь на сайте (ссылка на регистрацию). Pirat.ca - самый быстрый торрент трекер в рунете!

Как скачивать  ·   Что такое торрент  ·   Рейтинг и ограничения

Пост 06-Авг-2013 14:13 (спустя 1 час 23 минуты)

Топик был перенесен из форума Наше кино (Трюм) в форум Российские фильмы
ara1205
 
Показать сообщения:    
Ответить на тему

Текущее время: Сегодня 23:17

Часовой пояс: GMT + 4



Вы не можете начинать темы
Вы не можете отвечать на сообщения
Вы не можете редактировать свои сообщения
Вы не можете удалять свои сообщения
Вы не можете голосовать в опросах
Вы не можете прикреплять файлы к сообщениям
Вы не можете скачивать файлы

▼ Вниз