ML
     
  Уважаемый Гость!
Вы можете поддержать проект и зарегистрироваться у наших партнеров - онлайн-стратегия MyLands. При регистрации в игре Вы получите код, который сможете активировать после регистрации на pirat.ca и получить 1000 дублонов.

Ваш код:
aec9a4a936117fb450ba69e519991a0465404b1d
 
     

Долгая счастливая жизнь (Борис Хлебников) [2013 г., драма, DVDRip]

Ответить на тему
 
Автор
Сообщение

Пост 08-Авг-2013 11:05

[Q] 

aleksey99

-Долгая счастливая жизнь-- Производство: Россия, Кинокомпания "Коктебель"
Режиссер: Борис Хлебников
Жанр: драма
Год выпуска: 2013 г.
Продолжительность: 01:15:40-Мировая премьера: 9 февраля 2013
Российская премьера: 11 апреля 2013, «Вольга»
Релиз на DVD: 18 июля 2013, «Вольга»-В ролях: Александр Яценко, Анна Котова, Владимир Коробейников, Сергей Наседкин, Евгений Сытый, Глеб Пускепалис, Инна Стерлигова, Александр Алябьев, Сергей Пестриков, Павел Колесников, Денис Ятковский, Валерий Константинов, Михаил Хапчук, Людмила Фамильцева, Андрей Монахов-Описание: Молодой предприниматель Саша поставлен перед выбором: получив компенсацию, мирно расстаться с налаженным хозяйством и уехать в город с любимой девушкой или вступить в опасную борьбу с новыми владельцами, чтобы отстоять права живущих на его земле людей.- -Качество видео: DVDRip
Контейнер: AVI
Видео кодек: XviD
Аудио кодек: AC3
Видео: 720x384 (1.88:1), 25 fps, XviD build 50 ~2127 kbps avg, 0.31 bit/pixel
Аудио: 48 kHz, AC3 Dolby Digital, 3/2 (L,C,R,l,r) + LFE ch, ~448 kbps
Cубтитры: Отсутствуют
Общее
Полное имя : H:\Torrent2\Dolgaja.schastlivaja.zhizn.2012.O.DVDRip.1400Mb[pirat.ca].avi
Формат : AVI
Формат/Информация : Audio Video Interleave
Размер файла : 1,37 Гбайт
Продолжительность : 1 ч. 15 м.
Общий поток : 2586 Кбит/сек
Программа кодирования : VirtualDubMod 1.5.10.3 | www.virtualdub-fr.org || (build 2550/release)
Библиотека кодирования : VirtualDubMod build 2550/release
Видео
Идентификатор : 0
Формат : MPEG-4 Visual
Профиль формата : Advanced [email protected]
Параметр BVOP формата : 2
Параметр QPel формата : Нет
Параметр GMC формата : Без точки перехода
Параметр матрицы формата : Выборочная
Идентификатор кодека : XVID
Идентификатор кодека/Подсказка : XviD
Продолжительность : 1 ч. 15 м.
Битрейт : 2128 Кбит/сек
Ширина : 720 пикселей
Высота : 384 пикселя
Соотношение сторон : 1,85:1
Частота кадров : 25,000 кадров/сек
Цветовое пространство : YUV
Субдискретизация насыщенности : 4:2:0
Битовая глубина : 8 бит
Тип развёртки : Прогрессивная
Метод сжатия : С потерями
Бит/(Пиксели*Кадры) : 0.308
Размер потока : 1,12 Гбайт (82%)
Библиотека кодирования : XviD 1.2.1 (UTC 2008-12-04)
Аудио
Идентификатор : 1
Формат : AC-3
Формат/Информация : Audio Coding 3
Расширение режима : CM (complete main)
Параметр Endianness формата : Big
Идентификатор кодека : 2000
Продолжительность : 1 ч. 15 м.
Вид битрейта : Постоянный
Битрейт : 448 Кбит/сек
Каналы : 6 каналов
Расположение каналов : Front: L C R, Side: L R, LFE
Частота : 48,0 КГц
Битовая глубина : 16 бит
Метод сжатия : С потерями
Размер потока : 242 Мбайт (17%)
Выравнивание : Разделение по промежуткам
Продолжительность промежутка : 40 мс. (1,00 видеокадр)
Время предзагрузки промежутка : 500 мс.
Download / Скачать

Хотите скачать бесплатно? Зарегистрируйтесь на сайте (ссылка на регистрацию). Pirat.ca - самый быстрый торрент трекер в рунете!

Как скачивать  ·   Что такое торрент  ·   Рейтинг и ограничения

Пост 08-Авг-2013 13:53 (спустя 2 часа 48 минут)

Топик был перенесен из форума Наше кино (Трюм) в форум Новинки (HD|DVD|BD| TV|SAT|PDTV| - Rips)
ara1205
 

okorm

889

Пост 08-Авг-2013 20:17 (спустя 9 часов)

[Q] 

Супер! Мне понравилось Лови бочку
[Профиль]  [ЛС] 

UA4HQW

Флибустьер

2528

Пост 12-Авг-2013 10:15 (спустя 3 дня)

[Q] 

Фильм полное го...но ! Зря время потратил.
Раздающему респект!
[Профиль]  [ЛС] 

Агент777

Юнга

Пост 23-Янв-2014 17:35 (спустя 5 месяцев 11 дней)

[Q] 

Не качает [/img][/img]фильм снят не очень... конец тупой! ёп
[Профиль]  [ЛС] 
Показать сообщения:    
Ответить на тему

Текущее время: Сегодня 02:24

Часовой пояс: GMT + 4



Вы не можете начинать темы
Вы не можете отвечать на сообщения
Вы не можете редактировать свои сообщения
Вы не можете удалять свои сообщения
Вы не можете голосовать в опросах
Вы не можете прикреплять файлы к сообщениям
Вы не можете скачивать файлы

▼ Вниз