ML
     
  Уважаемый Гость!
Вы можете поддержать проект и зарегистрироваться у наших партнеров - онлайн-стратегия MyLands. При регистрации в игре Вы получите код, который сможете активировать после регистрации на pirat.ca и получить 1000 дублонов.

Ваш код:
4399ab8611ee7f8a22949d2ee7634160dd2db7e0
 
     

Нарочно не придумаешь (Александр Хван) [2013 г., мелодрама, SATRip]

Ответить на тему
 
Автор
Сообщение

Пост 08-Авг-2013 14:29

[Q] 

ara1205

-Нарочно не придумаешь-- Производство: Беларусь
Год выпуска: 2013 г.
Жанр: мелодрама
Продолжительность: 01:43:34
Российская премьера: 4 августа 2013-Режиссер: Александр Хван-В ролях: Елена Дробышева, Владислав Ветров, Игорь Денисов, Анна Маланкина, Сергей Жбанков, Татьяна Чердынцева-Описание: Марине за 40, она работает портнихой в ателье, живёт со взрослой дочкой Лерой, которую вырастила и воспитала одна. Мысленно «поставив на себе крест», Марина не замечает, что в неё влюбляется клиент — солидный бизнесмен Велигоров, только очень застенчивый…- -Качество видео: SATRip
Контейнер: AVI
Видео кодек: XviD
Аудио кодек: MP3
Видео: 720x400, 1495 kbps, 25 fps, 0,208 bpp
Аудио: 2 ch, 48 kHz, 128 kbps
Cубтитры: отсутствуют-
Общее
Полное имя : C:\Users\Ромик\Pictures\Посмотреть\Нарочно не придумаешь\Narochno.ne.pridumaesh.2013.SATRip.avi
Формат : AVI
Формат/Информация : Audio Video Interleave
Размер файла : 1,18 Гбайт
Продолжительность : 1 ч. 43 м.
Общий поток : 1633 Кбит/сек
Программа кодирования : VirtualDubMod 1.5.10.2 (build 2540/release)
Библиотека кодирования : VirtualDub build 32507/release
Видео
Идентификатор : 0
Формат : MPEG-4 Visual
Профиль формата : Advanced [email protected]
Параметр BVOP формата : 2
Параметр QPel формата : Нет
Параметр GMC формата : Без точки перехода
Параметр матрицы формата : Default (MPEG)
Идентификатор кодека : XVID
Идентификатор кодека/Подсказка : XviD
Продолжительность : 1 ч. 43 м.
Битрейт : 1495 Кбит/сек
Ширина : 720 пикселей
Высота : 400 пикселей
Соотношение сторон : 16:9
Частота кадров : 25,000 кадров/сек
Цветовое пространство : YUV
Субдискретизация насыщенности : 4:2:0
Битовая глубина : 8 бит
Тип развёртки : Прогрессивная
Метод сжатия : С потерями
Бит/(Пиксели*Кадры) : 0.208
Размер потока : 1,08 Гбайт (92%)
Библиотека кодирования : XviD 64
Аудио
Идентификатор : 1
Формат : MPEG Audio
Версия формата : Version 1
Профиль формата : Layer 3
Режим : Joint stereo
Расширение режима : MS Stereo
Идентификатор кодека : 55
Идентификатор кодека/Подсказка : MP3
Продолжительность : 1 ч. 43 м.
Вид битрейта : Постоянный
Битрейт : 128 Кбит/сек
Каналы : 2 канала
Частота : 48,0 КГц
Метод сжатия : С потерями
Размер потока : 94,8 Мбайт (8%)
Выравнивание : Соединение по промежуткам
Продолжительность промежутка : 40 мс. (1,00 видеокадр)
Время предзагрузки промежутка : 504 мс.
Библиотека кодирования : LAME3.90.3ЄЄЄЄЄЄЄЄЄЄ
-
-
-
Download / Скачать

Хотите скачать бесплатно? Зарегистрируйтесь на сайте (ссылка на регистрацию). Pirat.ca - самый быстрый торрент трекер в рунете!

Как скачивать  ·   Что такое торрент  ·   Рейтинг и ограничения

okorm

889

Пост 08-Авг-2013 20:14 (спустя 5 часов)

[Q] 

Лови бочку Супер! Спасибо!!!
[Профиль]  [ЛС] 
Показать сообщения:    
Ответить на тему

Текущее время: Сегодня 10:48

Часовой пояс: GMT + 4



Вы не можете начинать темы
Вы не можете отвечать на сообщения
Вы не можете редактировать свои сообщения
Вы не можете удалять свои сообщения
Вы не можете голосовать в опросах
Вы не можете прикреплять файлы к сообщениям
Вы не можете скачивать файлы

▼ Вниз