ML
     
  Уважаемый Гость!
Вы можете поддержать проект и зарегистрироваться у наших партнеров - онлайн-стратегия MyLands. При регистрации в игре Вы получите код, который сможете активировать после регистрации на pirat.ca и получить 1000 дублонов.

Ваш код:
2a3da67fd641d69eeebb7cb965232435a70eaa24
 
     

Рыжик в Зазеркалье (Елена Турова) [2011 г., Детский, фэнтези, приключения, TVRip]

Ответить на тему
 
Автор
Сообщение

Пост 27-Дек-2011 18:22

[Q] 

UA4HQW

Флибустьер

Рыжик в Зазеркалье
Год выпуска: 2011
Жанр: Детский, фэнтези, приключения
Продолжительность: 01:55:07
Режиссер: Елена Турова
В ролях: Диана Запрудская, Анна Самохавец, Павел Харланчук, Дмитрий Миллер, Дмитрий Пустильник, Олег Гарбуз, Валерий Зеленский
Описание: В сказочном королевстве Недалия злой волшебник Мортис заколдовал все зеркала. Жители Недалии не могли видеть свои отражения даже в воде, потому что сразу исчезали. Но Мортису и этого показалось мало. И зло начало проникать из сказочного в реальный мир.
Победить Мортиса не просто — его может остановить человек королевских кровей. И таким человеком оказывается девчонка по прозвищу Рыжик.
Кинопоиск , Трейлер
Источник/Качество: TVRip
Формат: AVI
Видео кодек: XviD
Аудио кодек: MP3
Видео: AVI, Xvid, 720x400, 25 fps, 1560 Kbit/s 0.217
Аудио: MP3, 48000 Hz, stereo, 128 Kbit/s
Общее
Полное имя : Ryzhik v zazerkalje.[pirat.ca].avi
Формат : AVI
Формат/Информация : Audio Video Interleave
Размер файла : 1,37 Гбайт
Продолжительность : 1 ч. 55 м.
Общий поток : 1698 Кбит/сек
Программа кодирования : VirtualDubMod 1.5.10.2 (build 2540/release)
Библиотека кодирования : VirtualDubMod build 2540/release
Видео
Идентификатор : 0
Формат : MPEG-4 Visual
Профиль формата : Advanced [email protected]
Параметр BVOP формата : 1
Параметр QPel формата : Нет
Параметр GMC формата : Без точки перехода
Параметр матрицы формата : Default (H.263)
Идентификатор кодека : XVID
Идентификатор кодека/Подсказка : XviD
Продолжительность : 1 ч. 55 м.
Битрейт : 1560 Кбит/сек
Ширина : 720 пикс.
Высота : 400 пикс.
Соотношение сторон : 16:9
Частота кадров : 25,000 кадр/сек
Цветовое пространство : YUV
Подвыборка цветности : 4:2:0
Битовая глубина : 8 бит
Тип развёртки : Прогрессивная
Метод сжатия : С потерями
Бит/(Пиксели*Кадры) : 0.217
Размер потока : 1,25 Гбайт (92%)
Библиотека кодирования : XviD 1.2.1 (UTC 2008-12-04)
Аудио
Идентификатор : 1
Формат : MPEG Audio
Версия формата : Version 1
Профиль формата : Layer 3
Идентификатор кодека : 55
Идентификатор кодека/Подсказка : MP3
Продолжительность : 1 ч. 55 м.
Вид битрейта : Постоянный
Битрейт : 128 Кбит/сек
Каналы : 2 канала
Частота : 48,0 КГц
Метод сжатия : С потерями
Размер потока : 105 Мбайт (8%)
Выравнивание : Соединение по промежуткам
Продолжительность промежутка : 40 мс. (1,00 видеокадр)
Время предзагрузки промежутка : 504 ms
Библиотека кодирования : LAME3.98r
Настройки программы : -m s -V 4 -q 2 -lowpass 17 -b 128



Download / Скачать

Хотите скачать бесплатно? Зарегистрируйтесь на сайте (ссылка на регистрацию). Pirat.ca - самый быстрый торрент трекер в рунете!

Как скачивать  ·   Что такое торрент  ·   Рейтинг и ограничения



Последний раз редактировалось: UA4HQW (2011-12-27 21:23), всего редактировалось 1 раз

@fishman@

Шкипер

Пост 27-Дек-2011 18:34 (спустя 12 минут)

[Q] 

Спасибо!! Вовремя и в тему...
[Профиль]  [ЛС] 

cooper

Лоцман

Пост 27-Дек-2011 19:36 (спустя 1 час 2 минуты)

[Q] 

В таком темпе завтра к обеду скачаемссс... bm
[Профиль]  [ЛС] 

Пост 28-Дек-2011 00:05 (спустя 4 часа)

Топик был перенесен из форума Наше Кино в форум Новинки (HD|DVD|BD|TV|SAT|PDTV| - Rips)

Skinwalker
 

@fishman@

Шкипер

Пост 28-Дек-2011 14:04 (спустя 18 часов)

[Q] 

Зачем выставлять, если не в состоянии раздать??? Сутки пытался скачать. А в другом известном месте скачал за 10 минут. ***
Устное предупреждение за оскорбление пользователя.
goxakrauter
[Профиль]  [ЛС] 

serjei-skrip

Лоцман

Пост 30-Дек-2011 20:00 (спустя 2 дня 5 часов)

[Q] 

помоему данный релиз был сделан для увеличения рейтинга, удаляю, докачивать не буду
[Профиль]  [ЛС] 

butyas

Корсар

Пост 31-Дек-2011 11:32 (спустя 15 часов)

[Q] 

ваще из раздачь нужно удалить
[Профиль]  [ЛС] 

goxakrauter

4540

Пост 01-Янв-2012 12:58 (спустя 1 день 1 час)

[Q] 

Проблема исправлена, просьба перекачать торрент!
[Профиль]  [ЛС] 

dimonpa

Гроза морей

Пост 01-Янв-2012 20:58 (спустя 8 часов)

[Q] 

Спасибо !!!
[Профиль]  [ЛС] 

Kronoskeo

Штурман

Пост 28-Мар-2014 10:51 (спустя 2 года 2 месяца)

[Q] 

Ты ваще собираешься раздавать?????????????????? кодекс
[Профиль]  [ЛС] 

alexgeod

Лоцман

Пост 28-Мар-2014 10:56 (спустя 5 минут)

[Q] 

Качает только в дорогу зря говорите.... !COOL!
[Профиль]  [ЛС] 

Kronoskeo

Штурман

Пост 29-Мар-2014 11:35 (спустя 1 день)

[Q] 

качество видео печальное!!! звук отстаёт!! раздача 58 кв/с !! короче - ФУ!!!
[Профиль]  [ЛС] 
Показать сообщения:    
Ответить на тему

Текущее время: Сегодня 01:16

Часовой пояс: GMT + 4



Вы не можете начинать темы
Вы не можете отвечать на сообщения
Вы не можете редактировать свои сообщения
Вы не можете удалять свои сообщения
Вы не можете голосовать в опросах
Вы не можете прикреплять файлы к сообщениям
Вы не можете скачивать файлы

▼ Вниз