ML
     
  Уважаемый Гость!
Вы можете поддержать проект и зарегистрироваться у наших партнеров - онлайн-стратегия MyLands. При регистрации в игре Вы получите код, который сможете активировать после регистрации на pirat.ca и получить 1000 дублонов.

Ваш код:
59354507ba913a0948d1a8f2e30f2e04c4cd7b9b
 
     

Абхазская сказка (Павел Бортников) [2012 г., мелодрама, комедия, SATRip]

Ответить на тему
 
Автор
Сообщение

Пост 12-Авг-2013 19:22

[Q] 

a1b1c1

Гроза морей

-Абхазская сказка-- Производство: Россия
Режиссер: Павел Бортников
Жанр: мелодрама, комедия
Год выпуска: 2012 г.
Продолжительность: 01:18:07
В ролях: Вячеслав Чепурченко, Александр Петров, Антон Соколов, Антонина Комиссарова, Алина Мазненкова, Ольга Бочарова, Юлия Пермякова-Описание: Эта красивая и одновременно комичная история могла произойти только в Абхазии, в стране, в которой еще сохранились древние обычаи, в которой гостей всегда принимают широким столом и полным бокалом.
Два друга, студенты — Петр и Денис, отправляются отдохнуть на летние каникулы в Абхазию, к дедушке Петра. В доме деда Петра ждёт сюрприз
В данной географической точке свои законы и нравы. Здесь всё возможно и всё от души! Денис влюбляется в абхазскую девушку Тинат, и она отвечает ему взаимностью. Им приходится бороться с обстоятельствами. Это красивая и одновременно комичная история, наполнена атмосферой абхазского гостеприимства, чудесных красот этой удивительной страны и увлекательными приключениями главных героев.
-Качество видео: SATRip
Контейнер: AVI
Видео кодек: DivX
Аудио кодек: MP3
Видео: DivX 5, 720x400 (16:9), 25.000 fps, 2 348 Kbps (0.326 bit/pixel)
Аудио: MP3, 48.0 KHz, 2 ch, 128 Kbps, CBR
Cубтитры: отсутствуют
Общее
Полное имя : Abhazskaja.skazka.avi
Формат : AVI
Формат/Информация : Audio Video Interleave
Профиль формата : OpenDML
Размер файла : 1,36 Гбайт
Продолжительность : 1 ч. 18 м.
Общий поток : 2493 Кбит/сек
Видео
Идентификатор : 0
Формат : MPEG-4 Visual
Параметр BVOP формата : Да
Параметр QPel формата : Нет
Параметр GMC формата : Без точки перехода
Параметр матрицы формата : Default (H.263)
Идентификатор кодека : DX50
Идентификатор кодека/Подсказка : DivX 5
Продолжительность : 1 ч. 18 м.
Битрейт : 2348 Кбит/сек
Ширина : 720 пикселей
Высота : 400 пикселей
Соотношение сторон : 16:9
Частота кадров : 25,000 кадров/сек
Цветовое пространство : YUV
Субдискретизация насыщенности : 4:2:0
Битовая глубина : 8 бит
Тип развёртки : Прогрессивная
Метод сжатия : С потерями
Бит/(Пиксели*Кадры) : 0.326
Размер потока : 1,28 Гбайт (94%)
Библиотека кодирования : Intel(R) MPEG-4 encoder based on Intel(R) IPP 6.1 build 137.20[6.1.137.763]
Аудио
Идентификатор : 1
Формат : MPEG Audio
Версия формата : Version 1
Профиль формата : Layer 3
Режим : Joint stereo
Идентификатор кодека : 55
Идентификатор кодека/Подсказка : MP3
Продолжительность : 1 ч. 18 м.
Вид битрейта : Постоянный
Битрейт : 128 Кбит/сек
Каналы : 2 канала
Частота : 48,0 КГц
Метод сжатия : С потерями
Размер потока : 71,5 Мбайт (5%)
Выравнивание : Соединение по промежуткам
Продолжительность промежутка : 24 мс. (0,60 видеокадр)
Библиотека кодирования : LAME3.98.2
Download / Скачать

Хотите скачать бесплатно? Зарегистрируйтесь на сайте (ссылка на регистрацию). Pirat.ca - самый быстрый торрент трекер в рунете!

Как скачивать  ·   Что такое торрент  ·   Рейтинг и ограничения

Пост 12-Авг-2013 20:32 (спустя 1 час 10 минут)

Топик был перенесен из форума Наше кино (Трюм) в форум Российские фильмы
kugesan
 
Показать сообщения:    
Ответить на тему

Текущее время: Сегодня 16:06

Часовой пояс: GMT + 4



Вы не можете начинать темы
Вы не можете отвечать на сообщения
Вы не можете редактировать свои сообщения
Вы не можете удалять свои сообщения
Вы не можете голосовать в опросах
Вы не можете прикреплять файлы к сообщениям
Вы не можете скачивать файлы

▼ Вниз