ML
     
  Уважаемый Гость!
Вы можете поддержать проект и зарегистрироваться у наших партнеров - онлайн-стратегия MyLands. При регистрации в игре Вы получите код, который сможете активировать после регистрации на pirat.ca и получить 1000 дублонов.

Ваш код:
8b29d0f8cd61fe457e59e7df0aa1fab41a2b88b9
 
     

Каминный гость (Анатолий Матешко) [2012 г., мелодрама, SATRip]

Ответить на тему
 
Автор
Сообщение

Пост 19-Авг-2013 14:26

[Q] 

ara1205

-Каминный гость-- Производство: Украина
Год выпуска: 2012 г.
Жанр: мелодрама
Продолжительность: 01:25:20
Российская премьера: 18 августа 2013-Режиссер: Анатолий Матешко-В ролях: Мария Шукшина, Андрей Федорцов, Алексей Череватенко, Ирма Витовская, Андрей Саминин, Андрей Исаенко, Андрей Дебрин, Анастасия Походенко-Матешко-Описание: ОНА — прокурор; строгая на работе, угрюмая и неулыбчивая дома. Уже пять лет как ОНА потеряла любимого мужа.
Однажды, возвратясь с работы, ОНА приходит в недоумение: в вазе с цветами, которую ОНА еще утром наполнила до краев, почти нет воды. Удивившись, вновь ее наполняет, а к утру обнаруживает вазу располовинившейся. Дальше — больше…
Следы чужого присутствия в квартире доводят ЕЁ до отчаяния: то ли ОНА сходит с ума, то ли дух мужа вступает с ней в контакт, в чем уверяет ЕЁ подруга, увлекающаяся экстросенсорикой. ОНА вступает в этот контакт: советуется, жалуется, получает подтверждающие контакт ответы, то стуком в стену, то в собственном компьютере. Удивлению и радости нет предела, ОНА снова с любимым мужем, хоть и с его духом.
Но вот однажды ночью из камина выпадает мужчина, приведя ЕЁ в ужас. И объясняется, это ОН-то и был на контакте…. ОН — беглец, незаконно обвиненный в убийстве в связи с подставой его партнера по бизнесу, вознамерившегося присвоить себе все, что было на двоих. Спасаясь от погони, ОН случайно находят убежище в заброшенном камине ЕЁ квартиры. Поверив, ОНА помогает ЕМУ уйти из-под суда. Да и тот, что оговорил, справедливо наказан.
Пережитый кошмар последних дней помогает ЕЙ отпустить боль былой потери и возродиться к новой жизни. Спутником в этой новой жизни очень может быть окажется ОН — ЕЁ «Каминный гость».- -Качество видео: SATRip
Контейнер: AVI
Видео кодек: XviD
Аудио кодек: MP3
Видео: 720x400, 25 fps, 2095 kbps avg, 0.291 bit/pixel
Аудио: 48 kHz, MPEG Layer 3, 2 ch, ~192.00 kbps avg
Cубтитры: отсутствуют-
Общее
Полное имя : C:\Users\Ромик\Pictures\Посмотреть\Каминный гость\Kaminnyy.gost.2012.SATRip.Files-x.avi
Формат : AVI
Формат/Информация : Audio Video Interleave
Размер файла : 1,37 Гбайт
Продолжительность : 1 ч. 25 м.
Общий поток : 2297 Кбит/сек
Программа кодирования : VirtualDubMod 1.5.10.3 | www.virtualdub-fr.org || (build 2550/release)
Библиотека кодирования : VirtualDubMod build 2550/release
Видео
Идентификатор : 0
Формат : MPEG-4 Visual
Профиль формата : Advanced [email protected]
Параметр BVOP формата : 1
Параметр QPel формата : Нет
Параметр GMC формата : Без точки перехода
Параметр матрицы формата : Default (H.263)
Идентификатор кодека : XVID
Идентификатор кодека/Подсказка : XviD
Продолжительность : 1 ч. 25 м.
Битрейт : 2095 Кбит/сек
Ширина : 720 пикселей
Высота : 400 пикселей
Соотношение сторон : 16:9
Частота кадров : 25,000 кадров/сек
Цветовое пространство : YUV
Субдискретизация насыщенности : 4:2:0
Битовая глубина : 8 бит
Тип развёртки : Прогрессивная
Метод сжатия : С потерями
Бит/(Пиксели*Кадры) : 0.291
Размер потока : 1,25 Гбайт (91%)
Библиотека кодирования : XviD 1.2.1 (UTC 2008-12-04)
Аудио
Идентификатор : 1
Формат : MPEG Audio
Версия формата : Version 1
Профиль формата : Layer 3
Идентификатор кодека : 55
Идентификатор кодека/Подсказка : MP3
Продолжительность : 1 ч. 25 м.
Вид битрейта : Постоянный
Битрейт : 192 Кбит/сек
Каналы : 2 канала
Частота : 48,0 КГц
Метод сжатия : С потерями
Размер потока : 117 Мбайт (8%)
Выравнивание : Соединение по промежуткам
Продолжительность промежутка : 40 мс. (1,00 видеокадр)
Время предзагрузки промежутка : 504 мс.
Библиотека кодирования : LAME3.98r
Настройки программы : -m s -V 4 -q 2 -lowpass 18.6 -b 192
-
-
Download / Скачать

Хотите скачать бесплатно? Зарегистрируйтесь на сайте (ссылка на регистрацию). Pirat.ca - самый быстрый торрент трекер в рунете!

Как скачивать  ·   Что такое торрент  ·   Рейтинг и ограничения

KuvaldA

Корсар

166

Пост 19-Авг-2013 15:03 (спустя 36 минут)

[Q] 

Хорошее кино, скачаю посмотреть.

_________________
[Профиль]  [ЛС] 

Znoi

Флибустьер

1163

Пост 19-Авг-2013 20:35 (спустя 5 часов)

[Q] 

Спасибо!!!
[Профиль]  [ЛС] 
Показать сообщения:    
Ответить на тему

Текущее время: Сегодня 21:26

Часовой пояс: GMT + 4



Вы не можете начинать темы
Вы не можете отвечать на сообщения
Вы не можете редактировать свои сообщения
Вы не можете удалять свои сообщения
Вы не можете голосовать в опросах
Вы не можете прикреплять файлы к сообщениям
Вы не можете скачивать файлы

▼ Вниз