ML
     
  Уважаемый Гость!
Вы можете поддержать проект и зарегистрироваться у наших партнеров - онлайн-стратегия MyLands. При регистрации в игре Вы получите код, который сможете активировать после регистрации на pirat.ca и получить 1000 дублонов.

Ваш код:
4855957e17f50c5c1236a0f8c4492b2b0bba00a0
 
     

Про любоff (Ольга Субботина) [2010 г., мелодрама, DVDRip]

Ответить на тему
 
Автор
Сообщение

Пост 28-Дек-2011 05:32

[Q] 

zyyx

--Про любоff-- Год выпуска: 2010
Мировая премьера: 30 сентября 2010
Российская премьера: 30 сентября 2010, «Наше Кино»
Дата выхода DVD: 28 октября 2010, «CP-Digital»
Страна: Россия
Жанр: мелодрама
Продолжительность: 01:46:17
Перевод: Оригинал [Лицензия]
Режиссер: Ольга Субботина
В ролях: Фёдор Бондарчук, Оксана Фандера, Ольга Сутулова, Мария Машкова, Евгений Стычкин, Андрей Кузичев, Анна Старшенбаум, Юозас Будрайтис, Александр Пугачев, Антон Степанов
Описание: У девушки Даши, приехавшей с подругой «покорять» Москву, редкая специальность — преподаватель техники речи, а жизнь — самая обыкновенная: съемная квартира, невысокие гонорары и занятия с утра до вечера. Однажды Даша получает выгодное предложение — дать уроки преуспевающему бизнесмену Владу, участвующему в политических выборах. У героев начинается бурный роман. Но случайная встреча с женой Влада заставляет Дашу взглянуть на происходящее совсем с другой стороны. И Влад оказывается совсем не героем романа и вовсе не мужчиной мечты…
Источник/Качество: DVDRip
Формат: AVI
Видео кодек: XviD
Аудио кодек: AC3
Видео: 688x368 (1.87:1), 25 fps, ~1494 kbps avg, 0.24 bit/pixel
Аудио: 48 kHz, 3/2 (L,C,R,l,r) + LFE ch, ~448 kbps
General
Complete name : F:\pirat.ca\pro.lyuboff.2010.dvdrip.ac3.1450mb.by.komnatny.avi
Format : AVI
Format/Info : Audio Video Interleave
File size : 1.45 GiB
Duration : 1h 46mn
Overall bit rate : 1 952 Kbps
Writing application : VirtualDubMod 1.5.10.3 | www.virtualdub-fr.org || (build 2550/release)
Writing library : VirtualDubMod build 2550/release
Video
ID : 0
Format : MPEG-4 Visual
Format profile : Advanced [email protected]
Format settings, BVOP : 1
Format settings, QPel : No
Format settings, GMC : No warppoints
Format settings, Matrix : Custom
Codec ID : XVID
Codec ID/Hint : XviD
Duration : 1h 46mn
Bit rate : 1 495 Kbps
Width : 688 pixels
Height : 368 pixels
Display aspect ratio : 1.870
Frame rate : 25.000 fps
Color space : YUV
Chroma subsampling : 4:2:0
Bit depth : 8 bits
Scan type : Progressive
Compression mode : Lossy
Bits/(Pixel*Frame) : 0.236
Stream size : 1.11 GiB (77%)
Writing library : XviD 64
Audio
ID : 1
Format : AC-3
Format/Info : Audio Coding 3
Mode extension : CM (complete main)
Codec ID : 2000
Duration : 1h 46mn
Bit rate mode : Constant
Bit rate : 448 Kbps
Channel(s) : 6 channels
Channel positions : Front: L C R, Side: L R, LFE
Sampling rate : 48.0 KHz
Bit depth : 16 bits
Compression mode : Lossy
Stream size : 341 MiB (23%)
Alignment : Split accross interleaves
Interleave, duration : 40 ms (1.00 video frame)
Interleave, preload duration : 500 ms



Download / Скачать

Хотите скачать бесплатно? Зарегистрируйтесь на сайте (ссылка на регистрацию). Pirat.ca - самый быстрый торрент трекер в рунете!

Как скачивать  ·   Что такое торрент  ·   Рейтинг и ограничения

Пост 28-Дек-2011 08:39 (спустя 3 часа)

Топик был перенесен из форума Наше Кино в форум Российские фильмы

Skinwalker
 

krendel1973

Флибустьер

Пост 16-Июл-2012 17:40 (спустя 6 месяцев 19 дней)

[Q] 

[Профиль]  [ЛС] 
Показать сообщения:    
Ответить на тему

Текущее время: Сегодня 06:09

Часовой пояс: GMT + 4



Вы не можете начинать темы
Вы не можете отвечать на сообщения
Вы не можете редактировать свои сообщения
Вы не можете удалять свои сообщения
Вы не можете голосовать в опросах
Вы не можете прикреплять файлы к сообщениям
Вы не можете скачивать файлы

▼ Вниз