ML
     
  Уважаемый Гость!
Вы можете поддержать проект и зарегистрироваться у наших партнеров - онлайн-стратегия MyLands. При регистрации в игре Вы получите код, который сможете активировать после регистрации на pirat.ca и получить 1000 дублонов.

Ваш код:
93dbf9fbdfa06c41d3b5a2c3921149ba36168c41
 
     

Обитаемый остров. Фильм первый (Федор Бондарчук) [2008, фантастика, боевик, BDRip]

Ответить на тему
 
Автор
Сообщение

Пост 03-Сен-2013 14:16

[Q] 

Боцман

Обитаемый остров. Фильм первый Год выпуска: 2008
Страна: Россия, Art Pictures Studio
Жанр: Фантастика, боевик
Продолжительность: 02:00:57
Перевод: не требуется
Режиссер: Федор Бондарчук
В ролях: Федор Бондарчук, Гоша Куценко, Сергей Гармаш, Сергей Мазаев, Василий Степанов, Алексей Панин, Юлия Снигирь, Петр Федоров, Алексей Серебряков, Анна Михалкова, Андрей Мерзликин, Сергей Барковский
Описание: …2157 год — эпоха расцвета человеческой цивилизации. Пилоты Группы Свободного Поиска бороздят просторы Вселенной. Главный герой, Максим Камеррер, совершает вынужденную посадку на планете Саракш, но уже через несколько минут его корабль будет уничтожен, а герой окажется узником неизвестной планеты. Вскоре Максим сталкивается с человеческой цивилизацией. Уровень ее развития сопоставим с давно минувшим на Западе ХХ веком. После многолетней ядерной войны на планете царит экологический кризис, в обществе полно социальных проблем, а установившийся мир очень шаток… Максиму предстоит пережить много событий и пройти много испытаний прежде, чем он сможет спасти эту планету…
Качество: BDRip (источник: SkyDreamer/Blu-ray Disk/1080p)
Формат: AVI
Видео кодек: XviD
Аудио кодек: АС3
Видео: 720x304 (2.37:1), 23.976 fps, XviD build 50 ~2133 kbps avg, 0.41 bit/pixel
Аудио: 48 kHz, AC3 Dolby Digital, 3/2 (L,C,R,l,r) + LFE ch, ~448.00 kbps avg
Общее
Полное имя : K:\Отечественное Кино\Obitaemyi.Ostrov.Fil-m.Pervyi.2008.RUS.BDRip.XviD.AC3.-HELLRAiSER.avi
Формат : AVI
Формат/Информация : Audio Video Interleave
Профиль формата : OpenDML
Размер файла : 2,19 Гбайт
Продолжительность : 2 ч. 0 м.
Общий поток : 2588 Кбит/сек
Название фильма : Обитаемый остров: Фильм первый (2008) BDRip
Режиссёр : HELLRAiSER (BDRip 1080)
Программа кодирования : VirtualDubMod 1.5.10.2 (build 2542/release)
Правообладатель : www.friends-club.info
Примечание : 04.03.2009
Видео
Идентификатор : 0
Формат : MPEG-4 Visual
Профиль формата : Advanced [email protected]
Параметр BVOP формата : 1
Параметр QPel формата : Нет
Параметр GMC формата : Без точки перехода
Параметр матрицы формата : Default (MPEG)
Идентификатор кодека : XVID
Идентификатор кодека/Подсказка : XviD
Продолжительность : 2 ч. 0 м.
Битрейт : 2128 Кбит/сек
Ширина : 720 пикселей
Высота : 304 пикселя
Соотношение сторон : 2,35:1
Частота кадров : 23,976 кадра/сек
Цветовое пространство : YUV
Субдискретизация насыщенности : 4:2:0
Битовая глубина : 8 бит
Тип развёртки : Прогрессивная
Метод сжатия : С потерями
Бит/(Пиксели*Кадры) : 0.406
Размер потока : 1,80 Гбайт (82%)
Библиотека кодирования : XviD 1.2.1 (UTC 2008-12-04)
Аудио
Идентификатор : 1
Формат : AC-3
Формат/Информация : Audio Coding 3
Расширение режима : CM (complete main)
Идентификатор кодека : 2000
Продолжительность : 2 ч. 0 м.
Вид битрейта : Постоянный
Битрейт : 448 Кбит/сек
Каналы : 6 каналов
Расположение каналов : Front: L C R, Side: L R, LFE
Частота : 48,0 КГц
Битовая глубина : 16 бит
Метод сжатия : С потерями
Размер потока : 388 Мбайт (17%)
Выравнивание : Разделение по промежуткам
Продолжительность промежутка : 42 мс. (1,00 видеокадр)
Время предзагрузки промежутка : 500 мс.



___________________________________________________________________________

___________________________________________________________________________
Download / Скачать

Хотите скачать бесплатно? Зарегистрируйтесь на сайте (ссылка на регистрацию). Pirat.ca - самый быстрый торрент трекер в рунете!

Как скачивать  ·   Что такое торрент  ·   Рейтинг и ограничения



Последний раз редактировалось: Боцман (2016-03-14 18:40), всего редактировалось 1 раз

vovan200976

Флибустьер

Пост 03-Сен-2013 14:20 (спустя 3 минуты)

[Q] 

Второй фильм тоже будет ??? !COOL! Лови бочку
[Профиль]  [ЛС] 

Пост 03-Сен-2013 16:33 (спустя 2 часа 13 минут)

Топик был перенесен из форума Наше кино (Трюм) в форум Российские фильмы
aleksey99
 

Sergi4

Гроза морей

Пост 03-Сен-2013 20:41 (спустя 6 часов)

[Q] 

А второй когда? Спасибо!!! Супер!
[Профиль]  [ЛС] 

Боцман ®

1289

Пост 03-Сен-2013 23:33 (спустя 2 часа 52 минуты)

[Q] 

Так есть же вроде на трекере.... и я на раздаче......
Обитаемый остров: Схватка (Фёдор Бондарчук) [2009 г., фантастика, боевик, BDRip]
Массаракш..............

_________________
не верь не бойся не проси не плачь...
[Профиль]  [ЛС] 

darkroot

Шкипер

Пост 12-Май-2014 22:29 (спустя 8 месяцев 8 дней)

[Q] 

как кинцо?) стоящее?

_________________
[Профиль]  [ЛС] 
Показать сообщения:    
Ответить на тему

Текущее время: Сегодня 20:21

Часовой пояс: GMT + 4



Вы не можете начинать темы
Вы не можете отвечать на сообщения
Вы не можете редактировать свои сообщения
Вы не можете удалять свои сообщения
Вы не можете голосовать в опросах
Вы не можете прикреплять файлы к сообщениям
Вы не можете скачивать файлы

▼ Вниз