ML
     
  Уважаемый Гость!
Вы можете поддержать проект и зарегистрироваться у наших партнеров - онлайн-стратегия MyLands. При регистрации в игре Вы получите код, который сможете активировать после регистрации на pirat.ca и получить 1000 дублонов.

Ваш код:
21acd5966619d49ad0b90c3305467b4646cc11a8
 
     

Игра в правду (Виктор Шамиров) [2013 г., комедия, DVDRip][Лицензия]

Ответить на тему
 
Автор
Сообщение

Пост 04-Сен-2013 07:15

[Q] 

aleksey99

-Игра в правду-«Комедия для взрослых по-французски»- Производство: Россия / «Базелевс Продакшн»
Режиссер: Виктор Шамиров
Жанр: комедия
Год выпуска: 2013 г.
Продолжительность: 01:31:18-Мировая премьера: 19 июля 2013
Российская премьера: 11 июля 2013, «Bazelevs Distribution»
Релиз на DVD: 3 сентября 2013, «Флагман-Трейд»-В ролях: Ирина Апексимова, Константин Юшкевич, Дмитрий Марьянов, Гоша Куценко-Описание: По сюжету, основанному на популярной пьесе французского драматурга Филиппа Леллуша. Трое бывших однокурсников собираются на квартире поболтать под водочку и вспомнить юность. Разухабистый бизнесмен Марк порывается вызвонить девочек, но не находит поддержки у друзей: автодилер Геннадий скорее по привычке хранит верность жене, а хозяин квартиры — физик и неудачник Анатолий — подготовил для всех сюрприз. Он приглашает в гости звезду их курса Майю, в которую все трое были влюблены 20 лет назад. Разговор на четверых не клеится, пока не начинается предельно откровенная игра в правду. Друзья узнают друг о друге то, чего, возможно, предпочли бы не знать. Пройдут ли их отношения проверку правдой?-
-Качество видео: DVDRip
Контейнер: AVI
Видео кодек: XviD
Аудио кодек: AC3
Видео: 720x304 (2.37:1), 25 fps, XviD build 50 ~1685 kbps avg, 0.31 bit/pixel
Аудио: 48 kHz, AC3 Dolby Digital, 3/2 (L,C,R,l,r) + LFE ch, ~448 kbps
Cубтитры: Отсутствуют
Общее
Полное имя : H:\Torrent2\Igra.v.pravdu.2013.O.DVDRip.1400MB[pirat.ca].avi
Формат : AVI
Формат/Информация : Audio Video Interleave
Размер файла : 1,37 Гбайт
Продолжительность : 1 ч. 31 м.
Общий поток : 2144 Кбит/сек
Программа кодирования : VirtualDubMod 1.5.10.2 (build 2540/release)
Библиотека кодирования : VirtualDubMod build 2540/release
Видео
Идентификатор : 0
Формат : MPEG-4 Visual
Профиль формата : Advanced [email protected]
Параметр BVOP формата : 2
Параметр QPel формата : Нет
Параметр GMC формата : Без точки перехода
Параметр матрицы формата : Default (MPEG)
Идентификатор кодека : XVID
Идентификатор кодека/Подсказка : XviD
Продолжительность : 1 ч. 31 м.
Битрейт : 1686 Кбит/сек
Ширина : 720 пикселей
Высота : 304 пикселя
Соотношение сторон : 2,35:1
Частота кадров : 25,000 кадров/сек
Цветовое пространство : YUV
Субдискретизация насыщенности : 4:2:0
Битовая глубина : 8 бит
Тип развёртки : Прогрессивная
Метод сжатия : С потерями
Бит/(Пиксели*Кадры) : 0.308
Размер потока : 1,08 Гбайт (79%)
Библиотека кодирования : XviD 1.2.1 (UTC 2008-12-04)
Аудио
Идентификатор : 1
Формат : AC-3
Формат/Информация : Audio Coding 3
Расширение режима : CM (complete main)
Параметр Endianness формата : Big
Идентификатор кодека : 2000
Продолжительность : 1 ч. 31 м.
Вид битрейта : Постоянный
Битрейт : 448 Кбит/сек
Каналы : 6 каналов
Расположение каналов : Front: L C R, Side: L R, LFE
Частота : 48,0 КГц
Битовая глубина : 16 бит
Метод сжатия : С потерями
Размер потока : 293 Мбайт (21%)
Выравнивание : Разделение по промежуткам
Продолжительность промежутка : 40 мс. (1,00 видеокадр)
Время предзагрузки промежутка : 500 мс.
Download / Скачать

Хотите скачать бесплатно? Зарегистрируйтесь на сайте (ссылка на регистрацию). Pirat.ca - самый быстрый торрент трекер в рунете!

Как скачивать  ·   Что такое торрент  ·   Рейтинг и ограничения

Пост 04-Сен-2013 09:16 (спустя 2 часа)

Топик был перенесен из форума Наше кино (Трюм) в форум Новинки (HD|DVD|BD| TV|SAT|PDTV| - Rips)
ara1205
 

Dimon777

Шкипер

Пост 04-Сен-2013 10:54 (спустя 3 часа)

[Q] 

Спасибо!!! заценим
[Профиль]  [ЛС] 

Полтос

Флибустьер

Пост 04-Сен-2013 17:36 (спустя 6 часов)

[Q] 

Отличный фильм. Показательный пример того как в ограниченном (квартирой) объёме при участии всего четырёх актёров можно сделать интересное кино об отношениях четырёх друзей, ностальгирующих по прошлому... Единственное что странно - куда пошёл многомиллионный бюджет картины (явно на гонорары артистам) + спорный выбор главной героини.
Супер! Всем качать!!! (взрослым...дети не поймут...)

_________________
Первый закон Прапорщика: Всё что поднимаемо - относительно!)
[Профиль]  [ЛС] 

ildar_ik

Шкипер

Пост 04-Сен-2013 20:19 (спустя 2 часа 42 минуты)

[Q] 

А я то думал, что умерло отечественное кино, анн нет! Фильм просто СУПЕР!!!!!
[Профиль]  [ЛС] 

Alex Yz

Гроза морей

Пост 04-Сен-2013 20:33 (спустя 14 минут)

[Q] 

Спасибо за раздачу. Посмотрим с супругой, сообщу о впечатлениях.
Автору респект!!! Спасибо!!!
[Профиль]  [ЛС] 

rosdon

Лоцман

Пост 05-Сен-2013 02:17 (спустя 5 часов)

[Q] 

Супер! Лови бочку Очень порадовал фильм, большое спасибо!!!! Хочется пожелать , что бы отечественные фильмы были на данном уровне.
[Профиль]  [ЛС] 

Jek@

Легенда

Пост 05-Сен-2013 06:37 (спустя 4 часа)

[Q] 

Спасибо!!! .
[Профиль]  [ЛС] 

erco

Лоцман

Пост 07-Сен-2013 22:40 (спустя 2 дня 16 часов)

[Q] 

Да, уж на что меня сложно пробить... И то в ностальгию ударился...
[Профиль]  [ЛС] 

Asp0

Морской Волк

Пост 08-Сен-2013 23:39 (спустя 1 день)

[Q] 

Спасибо за отзывы и за раздачу отдельное спасибо. Качнем, посмотрим. aa
Спасибо!!!
[Профиль]  [ЛС] 

Yrets

Флибустьер

159

Пост 11-Сен-2013 16:44 (спустя 2 дня 17 часов)

[Q] 

Отзывы хорошие.Забираю. Автору респект и бочка в трюм.
[Профиль]  [ЛС] 

denaranov

Корсар

Пост 11-Сен-2013 20:34 (спустя 3 часа)

[Q] 

Спасибо!!! бла бла бла бла бла
!Виктор 1964 писал(а):

Флуд.
[Профиль]  [ЛС] 

anton966

9712

Пост 11-Сен-2013 20:54 (спустя 20 минут)

[Q] 

denaranov,
Еще разок поблакаете и некоторое время будет для сочинения нормальных постов в будущем.

_________________
" ...потому что во многой мудрости много печали; и кто умножает познания, умножает скорбь" ( Еккл 1:17,18)
[Профиль]  [ЛС] 

_Marks_

Флибустьер

Пост 12-Сен-2013 18:46 (спустя 21 час)

[Q] 

через чур слащавенько и наигранно,но в целом фильм хороший. Автору респект!!!
[Профиль]  [ЛС] 

NaTaLi13

Лоцман

Пост 14-Сен-2013 23:44 (спустя 2 дня 4 часа)

[Q] 

Интересный фильм. Получили большое удовольствие от просмотра.
[Профиль]  [ЛС] 

dadec39

Корсар

Пост 15-Сен-2013 05:51 (спустя 6 часов)

[Q] 

Фильм хороший, но не лучше прошлого (Упражнения в прекрасном).
[Профиль]  [ЛС] 

cerber73

Морской Волк

Пост 22-Сен-2013 20:46 (спустя 7 дней)

[Q] 

Спасибо!!! Автору респект!!! посмотрим
[Профиль]  [ЛС] 

petrovich58

Корсар

Пост 19-Окт-2013 05:48 (спустя 26 дней)

[Q] 

Фильм интересный,кто любит приколы смотреть обязательно! Лови бочку
[Профиль]  [ЛС] 

СерКат

Корсар

Пост 29-Ноя-2013 17:37 (спустя 1 месяц 10 дней)

[Q] 

фильм очень хороший,советую
[Профиль]  [ЛС] 

Proximus

Юнга

Пост 03-Дек-2013 01:07 (спустя 3 дня)

[Q] 

Зачот Спасибо!!!
[Профиль]  [ЛС] 

Паньшин Иван

Лоцман

Пост 07-Дек-2013 21:04 (спустя 4 дня)

[Q] 

пойдёт, провести время вечером
[Профиль]  [ЛС] 

Scorpion7474

Флибустьер

Пост 23-Дек-2013 12:13 (спустя 15 дней)

[Q] 

спс, посмотрел с удовольствием
[Профиль]  [ЛС] 

zloiaspirant

Корсар

Пост 28-Дек-2013 16:17 (спустя 5 дней)

[Q] 

Отзывы прекрасные, поглядим и сам фильмец! Спасибо раздающим!
[Профиль]  [ЛС] 

petrovich58

Корсар

Пост 31-Дек-2013 03:51 (спустя 2 дня 11 часов)

[Q] 

ёп Всех пиратов с наступающим Новым годом! az
[Профиль]  [ЛС] 
Показать сообщения:    
Ответить на тему

Текущее время: Сегодня 23:21

Часовой пояс: GMT + 4



Вы не можете начинать темы
Вы не можете отвечать на сообщения
Вы не можете редактировать свои сообщения
Вы не можете удалять свои сообщения
Вы не можете голосовать в опросах
Вы не можете прикреплять файлы к сообщениям
Вы не можете скачивать файлы

▼ Вниз