ML
     
  Уважаемый Гость!
Вы можете поддержать проект и зарегистрироваться у наших партнеров - онлайн-стратегия MyLands. При регистрации в игре Вы получите код, который сможете активировать после регистрации на pirat.ca и получить 1000 дублонов.

Ваш код:
dbd0d701284cde74a1f34d06ce20b7bc75a73e75
 
     

Дочь (Александр Касаткин, Наталья Назарова) [2012 г., драма, детектив, DVDRip]

Ответить на тему
 
Автор
Сообщение

Пост 13-Сен-2013 15:35

[Q] 

aleksey99

-Дочь-- Производство: Россия / Студия "Валдай"
Режиссер: Александр Касаткин, Наталья Назарова
Жанр: драма, детектив
Год выпуска: 2012 г.
Продолжительность: 01:50:20-Мировая премьера: 15 октября 2012
Российская премьера: 29 ноября 2012, «Панорама Кино»
Дата выхода DVD: 9 сентября 2013, «Новый Диск»-В ролях: Мария Смольнкова, Олег Ткачёв, Игорь Мазепа, Владимир Мишуков, Яна Осипова, Мария Звонарева, Кирилл Назаров, Анастасия Имамова, Евгений Ткачук, Алена Кузнецова-Описание: Инна живет со своим папой и маленьким братом в небольшом провинциальном городе. Ее жизнь меняется, когда новая девочка — Маша приезжает в школу, в которой учится Инна. Между ними завязывается дружба. Но Маша становится жертвой серийного маньяка, который орудует в городке, убивая девочек 13-15 лет. Приехав на панихиду в церковь, Инна встречает сына священника — Илью, чья сестра тоже была убита.-
Трейлер-Качество видео: DVDRip
Контейнер: AVI
Видео кодек: XviD
Аудио кодек: AC3
Видео: 720x400 (1.80:1), 25 fps, XviD build 50 ~1424 kbps avg, 0.20 bit/pixel
Аудио: 48 kHz, AC3 Dolby Digital, 3/2 (L,C,R,l,r) + LFE ch, ~448 kbps
Cубтитры: Отсутствуют
Общее
Полное имя : H:\Torrent2\Doch_2012_DVDRip_1400_[pirat.ca].avi
Формат : AVI
Формат/Информация : Audio Video Interleave
Размер файла : 1,45 Гбайт
Продолжительность : 1 ч. 50 м.
Общий поток : 1883 Кбит/сек
Программа кодирования : VirtualDubMod 1.5.10.3 | www.virtualdub-fr.org || (build 2550/release)
Библиотека кодирования : VirtualDubMod build 2550/release
Видео
Идентификатор : 0
Формат : MPEG-4 Visual
Профиль формата : Advanced [email protected]
Параметр BVOP формата : 1
Параметр QPel формата : Нет
Параметр GMC формата : Без точки перехода
Параметр матрицы формата : Default (MPEG)
Идентификатор кодека : XVID
Идентификатор кодека/Подсказка : XviD
Продолжительность : 1 ч. 50 м.
Битрейт : 1425 Кбит/сек
Ширина : 720 пикселей
Высота : 400 пикселей
Соотношение сторон : 16:9
Частота кадров : 25,000 кадров/сек
Цветовое пространство : YUV
Субдискретизация насыщенности : 4:2:0
Битовая глубина : 8 бит
Тип развёртки : Прогрессивная
Метод сжатия : С потерями
Бит/(Пиксели*Кадры) : 0.198
Размер потока : 1,10 Гбайт (76%)
Библиотека кодирования : XviD 1.2.1 (UTC 2008-12-04)
Аудио
Идентификатор : 1
Формат : AC-3
Формат/Информация : Audio Coding 3
Расширение режима : CM (complete main)
Параметр Endianness формата : Big
Идентификатор кодека : 2000
Продолжительность : 1 ч. 50 м.
Вид битрейта : Постоянный
Битрейт : 448 Кбит/сек
Каналы : 6 каналов
Расположение каналов : Front: L C R, Side: L R, LFE
Частота : 48,0 КГц
Битовая глубина : 16 бит
Метод сжатия : С потерями
Размер потока : 354 Мбайт (24%)
Выравнивание : Разделение по промежуткам
Продолжительность промежутка : 40 мс. (1,00 видеокадр)
Время предзагрузки промежутка : 500 мс.
Главный приз Общественного жюри газеты «Московский комсомолец» 10-го Московского фестиваля отечественного кино «Московская премьера» 2012 г.
На 28-м Международном Кинофестивале в Варшаве - приз ФИПРЕСИ.
Приз за лучший дебют на кинофестивале "СТАЛКЕР"
Лучший дебют "КИНОТАВР" 2012
Гранпри в Благовещенске на кинофестивале "Золотая осень"
Гранпри на кинофестивале "Спутник над Варшавой"
Приз FIPRESCI на международном фестивале в Таллине
Гранпри на международном фестивале "Лучезарный Ангел"
Приз за лучшую режиссуру и лучшую женскую роль на фестивале "Виват Россия!"
Download / Скачать

Хотите скачать бесплатно? Зарегистрируйтесь на сайте (ссылка на регистрацию). Pirat.ca - самый быстрый торрент трекер в рунете!

Как скачивать  ·   Что такое торрент  ·   Рейтинг и ограничения

Мишки

Морской Волк

Пост 14-Сен-2013 00:13 (спустя 8 часов)

[Q] 

Мне вот всегда было интересно. Действительно Российский режиссер видит так жизнь, людей, быт и т.д.? Тогда им лечится надо, раз их мирок настолько серый и депресивный. Зря потерял время, ужасные впечатления.

_________________
Это всего лишь игра, настройся на волну позитива!:)
[Профиль]  [ЛС] 

zloiaspirant

Корсар

Пост 14-Сен-2013 08:09 (спустя 7 часов)

[Q] 

Автору респект!!!
[Профиль]  [ЛС] 

айрат707

Штурман

Пост 14-Сен-2013 10:57 (спустя 2 часа 48 минут)

[Q] 

!COOL! !COOL! кул
[Профиль]  [ЛС] 

Stalker_29

Корсар

Пост 15-Сен-2013 10:18 (спустя 23 часа)

[Q] 

Ну вот скажите, и кому верить то??? Так норм или нет?
[Профиль]  [ЛС] 

Полтос

Флибустьер

Пост 20-Сен-2013 17:11 (спустя 5 дней)

[Q] 

422618Ну вот скажите, и кому верить то??? Так норм или нет?
Фильм нормальный, но взрослый... Про конфликт православных устоев с моральной деградирующей под тлетворным влиянием запада молодёжи в обычной российской глубинке... Я о потраченном времени не желею. Убогость жизни замкадья действительно удручает, но это наша реальность... Спасибо!!!

_________________
Первый закон Прапорщика: Всё что поднимаемо - относительно!)
[Профиль]  [ЛС] 

Дмитров

Морской Волк

Пост 20-Сен-2013 21:06 (спустя 3 часа)

[Q] 

Да, вот так режиссер видит сегодняшнюю действительность в городе Касимов. А она разве другая? Не всё развлекательные фильмы про такую нашу замечательную жизнь снимать! Православие большевики отняли - вот и получили то, что имеем на выходе: полный упадок, деградацию и уныние.
[Профиль]  [ЛС] 

MDPIRAT

Штурман

Пост 21-Сен-2013 12:05 (спустя 14 часов)

[Q] 

вчера смотрели. концовку не стал досматривать, такая социально моральная шляпа понеслась что аж тошно

_________________
Подпись отключена за нарушение правил форума
[Профиль]  [ЛС] 

_Marks_

Флибустьер

Пост 22-Сен-2013 06:39 (спустя 18 часов)

[Q] 

очень жизненный фильм,россия как есть... Автору респект!!!
[Профиль]  [ЛС] 

BearArtyom

Штурман

Пост 22-Сен-2013 20:15 (спустя 13 часов)

[Q] 

Этот фильм случайно не похож на фильм жить 2011 года режиссера Сигарева? Такойже депресняк наверное???
[Профиль]  [ЛС] 

Jek@

Легенда

Пост 24-Сен-2013 08:01 (спустя 1 день 11 часов)

[Q] 

Спасибо!!! .
[Профиль]  [ЛС] 

prohodilmimo

Корсар

24

Пост 24-Сен-2013 19:41 (спустя 11 часов)

[Q] 

это, так понимаю,очередная чернуха? и кому оно надо cs . СИБИРЬ. МОНАМУР. тоже жесткий, но там хоть надежда есть... Не знаю - комменты почитал и качать совсем расхотелось cn
[Профиль]  [ЛС] 

AirPower

Морской Волк

Пост 24-Сен-2013 23:48 (спустя 4 часа)

[Q] 

комменты почитал и качать совсем расхотелось
+1
[Профиль]  [ЛС] 

Raptus

Лоцман

Пост 26-Сен-2013 11:53 (спустя 1 день 12 часов)

[Q] 

Фильм прекрасен , идея глубока , игра актеров отличная , ничего лишнего , имеющий глаза да увидит .
[Профиль]  [ЛС] 

UA4HQW

Флибустьер

2528

Пост 24-Ноя-2013 08:21 (спустя 1 месяц 27 дней)

[Q] 

Хороший фильм. Зацепил.
Автору респект!!!
[Профиль]  [ЛС] 
Показать сообщения:    
Ответить на тему

Текущее время: Сегодня 18:35

Часовой пояс: GMT + 4



Вы не можете начинать темы
Вы не можете отвечать на сообщения
Вы не можете редактировать свои сообщения
Вы не можете удалять свои сообщения
Вы не можете голосовать в опросах
Вы не можете прикреплять файлы к сообщениям
Вы не можете скачивать файлы

▼ Вниз