ML
     
  Уважаемый Гость!
Вы можете поддержать проект и зарегистрироваться у наших партнеров - онлайн-стратегия MyLands. При регистрации в игре Вы получите код, который сможете активировать после регистрации на pirat.ca и получить 1000 дублонов.

Ваш код:
69f316be79867e9bf99caee9682d20bb11964507
 
     

Сказка про Федота-стрельца (Сергей Овчаров) [2001 г., комедия, сказка, DVDRip]

Ответить на тему
 
Автор
Сообщение

Пост 15-Сен-2013 08:49

[Q] 

Пират

-Сказка про Федота-стрельца-- Производство: Россия
Режиссер: Сергей Овчаров
Жанр: комедия, сказка
Год выпуска: 2001 г.
Продолжительность: 01:41:48
В ролях: Константин Воробьёв, Андрей Мягков, Владимир Гостюхин-Описание: Художественный фильм по мотивам пьесы «Про Федота-стрельца, удалого молодца» Леонида Филатова. Место действия сказа — Тридевятое царство, полное пьяниц, воров и нищих. Главный герой — стрелец Федот, которого царь отправляет на трудные задания. Каждый раз с помощью жены-голубицы и волшебных помощников Федоту чудесным образом удается справиться с поручениями.-КиноПоиск
Качество видео: DVDRip
Контейнер: AVI
Видео кодек: XviD
Аудио кодек: AC3
Видео: 688x416 (1.65:1), 25 fps, XviD build 65 ~1593 kbps avg, 0.22 bit/pixel
Аудио: 48 kHz, AC3 Dolby Digital, 3/2 (L,C,R,l,r) + LFE ch, ~448 kbps
Cубтитры: отсутствуют
Общее
Полное имя : E:\Раздачи\skaz.pro.fedota-streltsa.2001.dvdrip.ac3.1450mb.avi
Формат : AVI
Формат/Информация : Audio Video Interleave
Размер файла : 1,46 Гбайт
Продолжительность : 1 ч. 41 м.
Общий поток : 2051 Кбит/сек
Название фильма : skaz.pro.fedota-streltsa.2001.dvdrip.ac3.1450mb.by.riperrr
Программа кодирования : VirtualDubMod 1.5.10.3 | www.virtualdub-fr.org || (build 2550/release)
Правообладатель : riperrr [RG Allfilms pirat.ca]
Видео
Идентификатор : 0
Формат : MPEG-4 Visual
Профиль формата : Advanced [email protected]
Параметр BVOP формата : 1
Параметр QPel формата : Нет
Параметр GMC формата : Без точки перехода
Параметр матрицы формата : Выборочная
Идентификатор кодека : XVID
Идентификатор кодека/Подсказка : XviD
Продолжительность : 1 ч. 41 м.
Битрейт : 1593 Кбит/сек
Ширина : 688 пикселей
Высота : 416 пикселей
Соотношение сторон : 1,654
Частота кадров : 25,000 кадров/сек
Цветовое пространство : YUV
Субдискретизация насыщенности : 4:2:0
Битовая глубина : 8 бит
Тип развёртки : Прогрессивная
Метод сжатия : С потерями
Бит/(Пиксели*Кадры) : 0.223
Размер потока : 1,13 Гбайт (78%)
Библиотека кодирования : XviD 65
Аудио
Идентификатор : 1
Формат : AC-3
Формат/Информация : Audio Coding 3
Расширение режима : CM (complete main)
Параметр Endianness формата : Big
Идентификатор кодека : 2000
Продолжительность : 1 ч. 41 м.
Вид битрейта : Постоянный
Битрейт : 448 Кбит/сек
Каналы : 6 каналов
Расположение каналов : Front: L C R, Side: L R, LFE
Частота : 48,0 КГц
Битовая глубина : 16 бит
Метод сжатия : С потерями
Размер потока : 326 Мбайт (22%)
Выравнивание : Разделение по промежуткам
Продолжительность промежутка : 40 мс. (1,00 видеокадр)
Время предзагрузки промежутка : 500 мс.
Download / Скачать

Хотите скачать бесплатно? Зарегистрируйтесь на сайте (ссылка на регистрацию). Pirat.ca - самый быстрый торрент трекер в рунете!

Как скачивать  ·   Что такое торрент  ·   Рейтинг и ограничения



Последний раз редактировалось: Пират (2013-09-15 13:06), всего редактировалось 1 раз

pwsnik

Гроза морей

Пост 15-Сен-2013 10:28 (спустя 1 час 38 минут)

[Q] 

Пират, Спасибо, сказку знаю почти наизусть, а вот фильм, что-то не помню. aa
[Профиль]  [ЛС] 

Штымп

Лоцман

Пост 15-Сен-2013 10:48 (спустя 19 минут)

[Q] 

Сказку несколько раз слушал на диске в исполнении автора ay
Видел мультфильм, не знал что есть ещё и кино.
Посмотрим, заценим...
Спасибо!!!
[Профиль]  [ЛС] 

ivan836

Морской Волк

Пост 15-Сен-2013 11:23 (спустя 35 минут)

[Q] 

bj Спасибо!!! гы-гы
[Профиль]  [ЛС] 

Пост 15-Сен-2013 13:28 (спустя 2 часа 5 минут)

Топик был перенесен из форума Наше кино (Трюм) в форум Российские фильмы
aleksey99
 

Пират ®

1474

Пост 15-Сен-2013 14:32 (спустя 3 часа)

[Q] 

pwsnik, Штымп, ivan836, наслаждайтесь!.. ay

_________________
Всё, что с нами происходит - результат наших прошлых поступков. Наше будущее зависит от того, что мы делаем сейчас...
[Профиль]  [ЛС] 

DAEDMAN

Флибустьер

Пост 15-Сен-2013 18:54 (спустя 4 часа)

[Q] 

ТОЧНО- ay Ю СПС!
[Профиль]  [ЛС] 

Штымп

Лоцман

Пост 31-Окт-2013 19:38 (спустя 1 месяц 16 дней)

[Q] 

Пират, Спасибо конечно что я его заценил, но фильм бредовый, я до конца не смог досмотреть.
А сама по себе сказка в исполнении Филатова вот это вещь. Да и мультик неплох.
[Профиль]  [ЛС] 

valdemar-olvi

Штурман

Пост 01-Ноя-2013 11:51 (спустя 16 часов)

[Q] 

Спасибо Пират за раздачу, посмотрим! Автору респект!!! Спасибо!!!
[Профиль]  [ЛС] 

Дядя Витя

53905

Пост 16-Дек-2015 20:28 (спустя 2 года 1 месяц)

[Q] 

422600Полного источника не было: 5 месяцев 7 дней
Очень жаль.

_________________
?
[Профиль]  [ЛС] 

KoNiaL_KCC

Гроза морей

Пост 20-Дек-2015 13:55 (спустя 3 дня)

[Q] 

бред полный ((
[Профиль]  [ЛС] 

Дядя Витя

53905

Пост 20-Дек-2015 21:46 (спустя 7 часов)

[Q] 

723988бред полный ((
А я посмотреть хотел.

_________________
?
[Профиль]  [ЛС] 
Показать сообщения:    
Ответить на тему

Текущее время: Сегодня 14:33

Часовой пояс: GMT + 4



Вы не можете начинать темы
Вы не можете отвечать на сообщения
Вы не можете редактировать свои сообщения
Вы не можете удалять свои сообщения
Вы не можете голосовать в опросах
Вы не можете прикреплять файлы к сообщениям
Вы не можете скачивать файлы

▼ Вниз