ML
     
  Уважаемый Гость!
Вы можете поддержать проект и зарегистрироваться у наших партнеров - онлайн-стратегия MyLands. При регистрации в игре Вы получите код, который сможете активировать после регистрации на pirat.ca и получить 1000 дублонов.

Ваш код:
dbd0d701284cde74a1f34d06ce20b7bc75a73e75
 
     

Мама (Денис Евстигнеев) [1999, драма, комедия, музыка, DVDRip]

Ответить на тему
 
Автор
Сообщение

Пост 15-Сен-2013 09:03

[Q] 

Пират

Мама Жанр: драма, комедия, музыка
Год выпуска: 1999
Продолжительность: 01:38:41
Режиссер: Денис Евстигнеев
В ролях: Нонна Мордюкова, Владимир Машков, Олег Меньшиков, Евгений Миронов, Михаил Крылов, Алексей Кравченко, Елена Панова, Андрей Панин, Максим Суханов, Николай Чиндяйкин
Описание: Началась эта история давно. Потеряв мужа, который попал в тюрьму из-за кражи угля и был убит во время побега, Полина, мать шестерых детей, осталась без всякой поддержки. Чтобы как-то свести концы с концами, Полина основала семейный фольклорный ансамбль. Но вскоре мама поняла, что ее дети достойны лучшей участи, и приняла отчаянное решение угнать самолет за границу. Через пятнадцать лет Полина выйдет из тюрьмы и узнает, что судьба разбросала детей по всей стране: один воюет в "горячей точке", другой рубит уголь в Донбассе, а самый старший, Лёнчик — по-прежнему в лечебнице для душевнобольных: ведь тогда, 15 лет назад, он прикинулся ненормальным. И сегодня мама вновь собирает своих сыновей, чтобы освободить старшего брата из психушки…
Качество видео: DVDRip
Формат видео: AVI
Видео кодек: XviD
Аудио кодек: AC3
Видео: 688x288 (2.39:1), 25 fps, XviD build 65 ~1721 kbps avg, 0.35 bit/pixel
Аудио: 48 kHz, AC3 Dolby Digital, 3/2 (L,C,R,l,r) + LFE ch, ~384 kbps
Общее
Полное имя : E:\Раздачи\mama.1999.dvdrip.ac3.1450mb.avi
Формат : AVI
Формат/Информация : Audio Video Interleave
Размер файла : 1,46 Гбайт
Продолжительность : 1 ч. 38 м.
Общий поток : 2115 Кбит/сек
Название фильма : mama.1999.dvdrip.ac3.1450mb.by.riperrr
Программа кодирования : VirtualDubMod 1.5.10.3 | www.virtualdub-fr.org || (build 2550/release)
Правообладатель : riperrr [RG Allfilms pirat.ca]
Видео
Идентификатор : 0
Формат : MPEG-4 Visual
Профиль формата : Advanced [email protected]
Параметр BVOP формата : 1
Параметр QPel формата : Нет
Параметр GMC формата : Без точки перехода
Параметр матрицы формата : Выборочная
Идентификатор кодека : XVID
Идентификатор кодека/Подсказка : XviD
Продолжительность : 1 ч. 38 м.
Битрейт : 1722 Кбит/сек
Ширина : 688 пикселей
Высота : 288 пикселей
Соотношение сторон : 2,40:1
Частота кадров : 25,000 кадров/сек
Цветовое пространство : YUV
Субдискретизация насыщенности : 4:2:0
Битовая глубина : 8 бит
Тип развёртки : Прогрессивная
Метод сжатия : С потерями
Бит/(Пиксели*Кадры) : 0.348
Размер потока : 1,19 Гбайт (81%)
Библиотека кодирования : XviD 65
Аудио
Идентификатор : 1
Формат : AC-3
Формат/Информация : Audio Coding 3
Расширение режима : CM (complete main)
Параметр Endianness формата : Big
Идентификатор кодека : 2000
Продолжительность : 1 ч. 38 м.
Вид битрейта : Постоянный
Битрейт : 384 Кбит/сек
Каналы : 6 каналов
Расположение каналов : Front: L C R, Side: L R, LFE
Частота : 48,0 КГц
Битовая глубина : 16 бит
Метод сжатия : С потерями
Размер потока : 271 Мбайт (18%)
Выравнивание : Разделение по промежуткам
Продолжительность промежутка : 40 мс. (1,00 видеокадр)
Время предзагрузки промежутка : 500 мс.



Download / Скачать

Хотите скачать бесплатно? Зарегистрируйтесь на сайте (ссылка на регистрацию). Pirat.ca - самый быстрый торрент трекер в рунете!

Как скачивать  ·   Что такое торрент  ·   Рейтинг и ограничения



Последний раз редактировалось: Пират (2013-09-15 13:21), всего редактировалось 1 раз

Пост 15-Сен-2013 14:13 (спустя 5 часов)

Топик был перенесен из форума Наше кино (Трюм) в форум Российские фильмы
erchine
 

viktor41

Шкипер

Пост 15-Окт-2013 19:08 (спустя 1 месяц)

[Q] 

Отличный фильм . Спасибо!!!
[Профиль]  [ЛС] 

Пират ®

1474

Пост 15-Окт-2013 19:28 (спустя 20 минут)

[Q] 

436000Отличный фильм . Спасибо!!!
а какие актёры: Меньшиков, Машков, Миронов!..

_________________
Всё, что с нами происходит - результат наших прошлых поступков. Наше будущее зависит от того, что мы делаем сейчас...
[Профиль]  [ЛС] 
Показать сообщения:    
Ответить на тему

Текущее время: Сегодня 18:31

Часовой пояс: GMT + 4



Вы не можете начинать темы
Вы не можете отвечать на сообщения
Вы не можете редактировать свои сообщения
Вы не можете удалять свои сообщения
Вы не можете голосовать в опросах
Вы не можете прикреплять файлы к сообщениям
Вы не можете скачивать файлы

▼ Вниз