ML
     
  Уважаемый Гость!
Вы можете поддержать проект и зарегистрироваться у наших партнеров - онлайн-стратегия MyLands. При регистрации в игре Вы получите код, который сможете активировать после регистрации на pirat.ca и получить 1000 дублонов.

Ваш код:
4855957e17f50c5c1236a0f8c4492b2b0bba00a0
 
     

Поклонник (Николай Лебедев) [1999, драма, триллер, DVDRip]

Ответить на тему
 
Автор
Сообщение

Пост 15-Сен-2013 09:04

[Q] 

Пират

Поклонник Жанр: драма, триллер
Год выпуска: 1999
Продолжительность: 01:33:03
Режиссер: Николай Лебедев
В ролях: Светлана Тома, Елена Сафонова, Марина Черепухина, Сергей Гармаш, Нина Усатова, Борис Щербаков, Константин Хабенский, Мария Порошина, Михаил Дорожкин, Михаил Крылов, Антон Колесников, Андрей Андреев
Описание: Родители 13-летней Лены развелись. Желая показать, что они с мамой прекрасно живут и вдвоем, и доказать взрослым свою самостоятельность, Лена устраивается работать на почту, пустив в ход свою изобретательность и обаяние. В почтовом отделении только и разговоров, что о серийном убийце, который держит в страхе весь район. Однажды вечером незнакомец, лица которого она не успела разглядеть, защищает Лену от хулиганов и продолжает инкогнито помогать ей. Лена готова поверить сама и убедить остальных, что ее опекает тот самый ужасный маньяк. Отношения со странным поклонником, готовым выполнить все ее указания, поначалу кажутся Лене увлекательной игрой. Но вскоре она убеждается, что эта игра становится смертельно опасной...
Качество видео: DVDRip
Формат видео: AVI
Видео кодек: XviD
Аудио кодек: AC3
Видео: 704x416 (1.69:1), 25 fps, XviD build 65 ~1783 kbps avg, 0.24 bit/pixel
Аудио: 48 kHz, AC3 Dolby Digital, 3/2 (L,C,R,l,r) LFE ch, ~448 kbps
Общее
Полное имя : E:\Раздачи\poklonnik.1999.dvdrip.1450mb.by.riperrr.avi
Формат : AVI
Формат/Информация : Audio Video Interleave
Размер файла : 1,46 Гбайт
Продолжительность : 1 ч. 33 м.
Общий поток : 2242 Кбит/сек
Программа кодирования : VirtualDubMod 1.5.10.3 | www.virtualdub-fr.org || (build 2550/release)
Библиотека кодирования : VirtualDubMod build 2550/release
Видео
Идентификатор : 0
Формат : MPEG-4 Visual
Профиль формата : Advanced [email protected]
Параметр BVOP формата : 1
Параметр QPel формата : Нет
Параметр GMC формата : Без точки перехода
Параметр матрицы формата : Выборочная
Идентификатор кодека : XVID
Идентификатор кодека/Подсказка : XviD
Продолжительность : 1 ч. 33 м.
Битрейт : 1784 Кбит/сек
Ширина : 704 пикселя
Высота : 416 пикселей
Соотношение сторон : 1,692
Частота кадров : 25,000 кадров/сек
Цветовое пространство : YUV
Субдискретизация насыщенности : 4:2:0
Битовая глубина : 8 бит
Тип развёртки : Прогрессивная
Метод сжатия : С потерями
Бит/(Пиксели*Кадры) : 0.244
Размер потока : 1,16 Гбайт (80%)
Библиотека кодирования : XviD 65
Аудио
Идентификатор : 1
Формат : AC-3
Формат/Информация : Audio Coding 3
Расширение режима : CM (complete main)
Параметр Endianness формата : Big
Идентификатор кодека : 2000
Продолжительность : 1 ч. 33 м.
Вид битрейта : Постоянный
Битрейт : 448 Кбит/сек
Каналы : 6 каналов
Расположение каналов : Front: L C R, Side: L R, LFE
Частота : 48,0 КГц
Битовая глубина : 16 бит
Метод сжатия : С потерями
Размер потока : 298 Мбайт (20%)
Выравнивание : Разделение по промежуткам
Продолжительность промежутка : 40 мс. (1,00 видеокадр)
Время предзагрузки промежутка : 500 мс.




Download / Скачать

Хотите скачать бесплатно? Зарегистрируйтесь на сайте (ссылка на регистрацию). Pirat.ca - самый быстрый торрент трекер в рунете!

Как скачивать  ·   Что такое торрент  ·   Рейтинг и ограничения



Последний раз редактировалось: Пират (2013-09-15 14:15), всего редактировалось 2 раз(а)

Пост 15-Сен-2013 14:16 (спустя 5 часов)

Топик был перенесен из форума Наше кино (Трюм) в форум Российские фильмы
erchine
 
Показать сообщения:    
Ответить на тему

Текущее время: Сегодня 06:10

Часовой пояс: GMT + 4



Вы не можете начинать темы
Вы не можете отвечать на сообщения
Вы не можете редактировать свои сообщения
Вы не можете удалять свои сообщения
Вы не можете голосовать в опросах
Вы не можете прикреплять файлы к сообщениям
Вы не можете скачивать файлы

▼ Вниз