ML
     
  Уважаемый Гость!
Вы можете поддержать проект и зарегистрироваться у наших партнеров - онлайн-стратегия MyLands. При регистрации в игре Вы получите код, который сможете активировать после регистрации на pirat.ca и получить 1000 дублонов.

Ваш код:
2a3da67fd641d69eeebb7cb965232435a70eaa24
 
     

Две луны, три солнца (Роман Балаян) [1998 г., Драма, DVDRip]

Ответить на тему
 
Автор
Сообщение

Пост 15-Сен-2013 09:04

[Q] 

Пират

Две луны, три солнца Год выпуска: 1998
Жанр: Драма
Продолжительность: 01:25:43
Режиссер: Роман Балаян
В ролях: Владимир Машков, Елена Шевченко, Константин Степанков, Сергей Степанченко, Ада Роговцева, Людмила Смородина, Виктория Малекторович, Владимир Шкрабак, Любовь Руднева, Евгений Батов, Олег Примогенов, Александр Белько, Валерия Малая, Даниил Шевченко
Описание: Алексей (Машков), сын русской матери и отца кавказской национальности, узнает о смерти брата Аслана, ушедшего воевать в Чечню на стороне соплеменников отца. Весть эту ему приносит старик, чей сын вместе с Асланом и другими был живьем зарыт в землю по приказу капитана-контрактника Максименко. Старик приехал, чтобы казнить капитана, он просит Алексея помочь. Но тот далек от войны. Ему предстоит защита докторской диссертации, он занимается искусством. Происходит психическая ломка, прежде чем Алексей осознает само понятие мести.
Качество: DVDRip
Формат: AVI
Видео кодек: XviD
Аудио кодек: AC3
Видео: 704x400 (1.76:1), 25 fps, XviD build 50 ~1956 kbps avg, 0.28 bit/pixel
Аудио: 48 kHz, AC3 Dolby Digital, 3/2 (L,C,R,l,r) + LFE ch, ~448.00 kbps avg
Общее
Полное имя : E:\Раздачи\Dve.luny.tri.solntsa.avi
Формат : AVI
Формат/Информация : Audio Video Interleave
Размер файла : 1,45 Гбайт
Продолжительность : 1 ч. 25 м.
Общий поток : 2415 Кбит/сек
Видео
Идентификатор : 0
Формат : MPEG-4 Visual
Профиль формата : Advanced [email protected]
Параметр BVOP формата : 2
Параметр QPel формата : Нет
Параметр GMC формата : Без точки перехода
Параметр матрицы формата : Выборочная
Идентификатор кодека : XVID
Идентификатор кодека/Подсказка : XviD
Продолжительность : 1 ч. 25 м.
Битрейт : 1957 Кбит/сек
Ширина : 704 пикселя
Высота : 400 пикселей
Соотношение сторон : 16:9
Частота кадров : 25,000 кадров/сек
Цветовое пространство : YUV
Субдискретизация насыщенности : 4:2:0
Битовая глубина : 8 бит
Тип развёртки : Прогрессивная
Метод сжатия : С потерями
Бит/(Пиксели*Кадры) : 0.278
Размер потока : 1,17 Гбайт (81%)
Библиотека кодирования : XviD 1.2.1 (UTC 2008-12-04)
Аудио
Идентификатор : 1
Формат : AC-3
Формат/Информация : Audio Coding 3
Расширение режима : CM (complete main)
Параметр Endianness формата : Big
Идентификатор кодека : 2000
Продолжительность : 1 ч. 25 м.
Продолжительность оригинала : 1 ч. 25 м.
Вид битрейта : Постоянный
Битрейт : 448 Кбит/сек
Каналы : 6 каналов
Расположение каналов : Front: L C R, Side: L R, LFE
Частота : 48,0 КГц
Битовая глубина : 16 бит
Метод сжатия : С потерями
Размер потока : 275 Мбайт (19%)
Выравнивание : Соединение по промежуткам
Продолжительность промежутка : 40 мс. (1,00 видеокадр)



Download / Скачать

Хотите скачать бесплатно? Зарегистрируйтесь на сайте (ссылка на регистрацию). Pirat.ca - самый быстрый торрент трекер в рунете!

Как скачивать  ·   Что такое торрент  ·   Рейтинг и ограничения



Последний раз редактировалось: Пират (2013-09-15 14:27), всего редактировалось 2 раз(а)

Пост 15-Сен-2013 14:54 (спустя 5 часов)

Топик был перенесен из форума Наше кино (Трюм) в форум Российские фильмы
erchine
 

E8GEN

Корсар

Пост 18-Дек-2013 23:41 (спустя 3 месяца 3 дня)

[Q] 

А что так отзывов нет.Как фильм то,смотреть можно?
[Профиль]  [ЛС] 

Пират ®

1474

Пост 29-Дек-2013 17:06 (спустя 10 дней)

[Q] 

E8GEN, на вкус и цвет - товарища нет... кому-то нравится, кому-то нет! :)
а вот, что мало отзывов - согласен - эт плохо! оставь хоть сам! ch

_________________
Всё, что с нами происходит - результат наших прошлых поступков. Наше будущее зависит от того, что мы делаем сейчас...
[Профиль]  [ЛС] 
Показать сообщения:    
Ответить на тему

Текущее время: Сегодня 01:16

Часовой пояс: GMT + 4



Вы не можете начинать темы
Вы не можете отвечать на сообщения
Вы не можете редактировать свои сообщения
Вы не можете удалять свои сообщения
Вы не можете голосовать в опросах
Вы не можете прикреплять файлы к сообщениям
Вы не можете скачивать файлы

▼ Вниз