ML
     
  Уважаемый Гость!
Вы можете поддержать проект и зарегистрироваться у наших партнеров - онлайн-стратегия MyLands. При регистрации в игре Вы получите код, который сможете активировать после регистрации на pirat.ca и получить 1000 дублонов.

Ваш код:
4855957e17f50c5c1236a0f8c4492b2b0bba00a0
 
     

Белая ночь, нежная ночь... (Виктор Мережко) [2007, мелодрама, DVDRip]

Ответить на тему
 
Автор
Сообщение

Пост 15-Сен-2013 09:05

[Q] 

Пират

Белая ночь, нежная ночь... Год выпуска: 2007
Жанр: мелодрама
Продолжительность: 01:36:37
Режиссер: Виктор Мережко
В ролях: Александр Домогаров, Наташа Варфоломеева, Анастасия Микульчина, Анна Табанина, Алексей Барабаш, Сергей Куницкий, Юрий Ицков, Валерий Кухарешин, Владимир Матвеев, Елизавета Нилова, Марьяна (Марианна) Семенова
Описание: Бизнесмен Павел Власов живет с любимой женой и ее дочкой Дашей. Однажды, вернувшись домой, Власов застает десятилетнюю падчерицу в слезах. Даша рассказывает отчиму, что у матери есть любовник, служащий компании Власова. Откровенность девочки превращает жизнь Власова в настоящий кошмар...
Качество видео: DVDRip
Формат видео: AVI
Видео кодек: XviD
Аудио кодек: AC3
Видео: 720x416 XviD 25 fps 1570 Kbps
Аудио: Dolby AC3 48 kHz 6 ch 448 Kbps
Общее
Полное имя : E:\Раздачи\Belaya.noch.neznaya.noch.(2.serii.iz.2).2007.XviD.DVDRip.avi
Формат : AVI
Формат/Информация : Audio Video Interleave
Размер файла : 1,37 Гбайт
Продолжительность : 1 ч. 36 м.
Общий поток : 2026 Кбит/сек
Программа кодирования : VirtualDubMod 1.5.4.1 (build 2178/release)
Библиотека кодирования : VirtualDubMod build 2178/release
Видео
Идентификатор : 0
Формат : MPEG-4 Visual
Профиль формата : Advanced [email protected]
Параметр BVOP формата : 1
Параметр QPel формата : Нет
Параметр GMC формата : Без точки перехода
Параметр матрицы формата : Выборочная
Идентификатор кодека : XVID
Идентификатор кодека/Подсказка : XviD
Продолжительность : 1 ч. 36 м.
Битрейт : 1571 Кбит/сек
Ширина : 720 пикселей
Высота : 416 пикселей
Соотношение сторон : 1,731
Частота кадров : 25,000 кадров/сек
Цветовое пространство : YUV
Субдискретизация насыщенности : 4:2:0
Битовая глубина : 8 бит
Тип развёртки : Прогрессивная
Метод сжатия : С потерями
Бит/(Пиксели*Кадры) : 0.210
Размер потока : 1,06 Гбайт (78%)
Библиотека кодирования : XviD 1.2.0.dev47 (UTC 2006-11-01)
Аудио
Идентификатор : 1
Формат : AC-3
Формат/Информация : Audio Coding 3
Расширение режима : CM (complete main)
Параметр Endianness формата : Big
Идентификатор кодека : 2000
Продолжительность : 1 ч. 36 м.
Вид битрейта : Постоянный
Битрейт : 448 Кбит/сек
Каналы : 6 каналов
Расположение каналов : Front: L C R, Side: L R, LFE
Частота : 48,0 КГц
Битовая глубина : 16 бит
Метод сжатия : С потерями
Размер потока : 310 Мбайт (22%)
Выравнивание : Разделение по промежуткам
Продолжительность промежутка : 96 мс. (2,40 видеокадра)
Время предзагрузки промежутка : 96 мс.
Язык : Russian
Download / Скачать

Хотите скачать бесплатно? Зарегистрируйтесь на сайте (ссылка на регистрацию). Pirat.ca - самый быстрый торрент трекер в рунете!

Как скачивать  ·   Что такое торрент  ·   Рейтинг и ограничения



Последний раз редактировалось: Пират (2013-09-15 14:36), всего редактировалось 1 раз

Пост 15-Сен-2013 14:55 (спустя 5 часов)

Топик был перенесен из форума Наше кино (Трюм) в форум Российские фильмы
erchine
 
Показать сообщения:    
Ответить на тему

Текущее время: Сегодня 06:11

Часовой пояс: GMT + 4



Вы не можете начинать темы
Вы не можете отвечать на сообщения
Вы не можете редактировать свои сообщения
Вы не можете удалять свои сообщения
Вы не можете голосовать в опросах
Вы не можете прикреплять файлы к сообщениям
Вы не можете скачивать файлы

▼ Вниз