ML
     
  Уважаемый Гость!
Вы можете поддержать проект и зарегистрироваться у наших партнеров - онлайн-стратегия MyLands. При регистрации в игре Вы получите код, который сможете активировать после регистрации на pirat.ca и получить 1000 дублонов.

Ваш код:
93dbf9fbdfa06c41d3b5a2c3921149ba36168c41
 
     

Любовь под прикрытием (Александр Баранов) [2010 г., Мелодрама, криминал, DVDRip]

Ответить на тему
 
Автор
Сообщение

Пост 15-Сен-2013 16:55

[Q] 

Пират

Любовь под прикрытием
Год выпуска: 2010
Жанр: Мелодрама, криминал
Продолжительность: 01:33:44
Режиссер: Александр Баранов
В ролях: Денис Никифоров, Ольга Красько, Игорь Савочкин, Владимир Меньшов, Елена Дубровская, Екатерина Климова, Павел Деревянко, Николай Иванов, Михаил Багдасаров, Велимир Русаков
Описание: Судьба свела их в отделении милиции. Павел Угрюмов, только что освободившийся из тюрьмы, пришел вставать на учет. Молодая учительница Ксюша Веселова решила, наконец, написать заявление на соседа по коммуналке Костика, постоянно крадущего ее вещи. Последним его трофеем стала флэшка с очень важной информацией. Никогда ранее не имевшая дела с работниками правоохранительных органов, Ксюша приняла понуро сидящего субъекта за оперуполномоченного. А тот не стал убеждать в обратном сильно понравившуюся ему девушку и вызвался помочь…
Качество: DVDRip
Формат: AVI
Видео кодек: XviD
Аудио кодек: MP3
Видео: 704x432 (1.67:1), 25 fps, XviD build 50 ~1887 kbps avg, 0.24 bit/pixel
Аудио: 48 kHz, AC3 Dolby Digital, 2/0 (L,R) ch, ~192.00 kbps avg
Общее
Полное имя : E:\Раздачи\Lubov.pod.Prikritiem.2010.XviD.DVDRip.avi
Формат : AVI
Формат/Информация : Audio Video Interleave
Размер файла : 1,37 Гбайт
Продолжительность : 1 ч. 33 м.
Общий поток : 2089 Кбит/сек
Программа кодирования : VirtualDubMod 1.5.4.1 (build 2178/release)
Библиотека кодирования : VirtualDubMod build 2178/release
Видео
Идентификатор : 0
Формат : MPEG-4 Visual
Профиль формата : Advanced [email protected]
Параметр BVOP формата : 1
Параметр QPel формата : Нет
Параметр GMC формата : Без точки перехода
Параметр матрицы формата : Выборочная
Идентификатор кодека : XVID
Идентификатор кодека/Подсказка : XviD
Продолжительность : 1 ч. 33 м.
Битрейт : 1890 Кбит/сек
Ширина : 704 пикселя
Высота : 432 пикселя
Соотношение сторон : 16:10
Частота кадров : 25,000 кадров/сек
Цветовое пространство : YUV
Субдискретизация насыщенности : 4:2:0
Битовая глубина : 8 бит
Тип развёртки : Прогрессивная
Метод сжатия : С потерями
Бит/(Пиксели*Кадры) : 0.249
Размер потока : 1,24 Гбайт (90%)
Библиотека кодирования : XviD 1.2.1 (UTC 2008-12-04)
Аудио
Идентификатор : 1
Формат : AC-3
Формат/Информация : Audio Coding 3
Расширение режима : CM (complete main)
Параметр Endianness формата : Big
Идентификатор кодека : 2000
Продолжительность : 1 ч. 33 м.
Вид битрейта : Постоянный
Битрейт : 192 Кбит/сек
Каналы : 2 канала
Расположение каналов : Front: L R
Частота : 48,0 КГц
Битовая глубина : 16 бит
Метод сжатия : С потерями
Размер потока : 129 Мбайт (9%)
Выравнивание : Разделение по промежуткам
Продолжительность промежутка : 96 мс. (2,40 видеокадра)
Время предзагрузки промежутка : 96 мс.
Язык : Russian




Download / Скачать

Хотите скачать бесплатно? Зарегистрируйтесь на сайте (ссылка на регистрацию). Pirat.ca - самый быстрый торрент трекер в рунете!

Как скачивать  ·   Что такое торрент  ·   Рейтинг и ограничения

Пост 15-Сен-2013 19:25 (спустя 2 часа 29 минут)

Топик был перенесен из форума Наше кино (Трюм) в форум Российские фильмы
erchine
 

viktor41

Шкипер

Пост 13-Окт-2013 19:34 (спустя 28 дней)

[Q] 

Отлично ! Спасибо!!!
[Профиль]  [ЛС] 
Показать сообщения:    
Ответить на тему

Текущее время: Сегодня 20:21

Часовой пояс: GMT + 4



Вы не можете начинать темы
Вы не можете отвечать на сообщения
Вы не можете редактировать свои сообщения
Вы не можете удалять свои сообщения
Вы не можете голосовать в опросах
Вы не можете прикреплять файлы к сообщениям
Вы не можете скачивать файлы

▼ Вниз