ML
     
  Уважаемый Гость!
Вы можете поддержать проект и зарегистрироваться у наших партнеров - онлайн-стратегия MyLands. При регистрации в игре Вы получите код, который сможете активировать после регистрации на pirat.ca и получить 1000 дублонов.

Ваш код:
4399ab8611ee7f8a22949d2ee7634160dd2db7e0
 
     

Антикиллер (Егор Кончаловский) [2002 г., боевик, DVDRip-AVC]

Ответить на тему
 
Автор
Сообщение

Пост 29-Дек-2011 07:59

[Q] 

zyyx

--Антикиллер
«Всё по справедливости...»
-- Год выпуска: 2002
Мировая премьера: 24 сентября 2003
Российская премьера: 1 августа 2002, «Централ Партнершип»
Дата выхода DVD: 28 января 2010, «CP-Digital»
Страна: Россия
Жанр: боевик
Продолжительность: 01:53:11
Перевод: Оригинал [Лицензия]
Режиссер: Егор Кончаловский
В ролях: Гоша Куценко, Михаил Ульянов, Сергей Шакуров, Александр Белявский, Иван Бортник, Евгений Голубенко, Александр Балуев, Евгений Сидихин, Виктор Сухоруков, Михаил Ефремов, Виктория Толстоганова, Сергей Векслер
Описание: Бывший сотрудник уголовного розыска майор Коренев по прозвищу Лис, освобождается из заключения. Увы, Фемида бывает слепа. Не малую роль в этом сыграл один из криминальных авторитетов этого города — Шаман.
Сведения счетов с Шаманом и предавшими его коллегами не входили в планы Коренева, оказавшегося в родном городе, который захлестнула волна криминальных войн. Однако, столкнувшись с невероятным преступным беспределом, царившим в городе, и гибелью его друзей, бывший майор Коренев принимает решение навести порядок своими методами…
Источник/Качество: DVDRip-AVC | Сэмпл
Формат: MKV
Видео кодек: H.26x
Аудио кодек: AC3
Видео: [email protected], 25.000 fps, 1386 Kbps
Аудио: 48.0 KHz, 6 ch, 448 Kbps
General
Unique ID : 217311571631280046840414903433738122606 (0xA37CAFB1CAF76173A34110BF78ECF56E)
Complete name : F:\pirat.ca\Antikiller.2002.x264.DVDRip.(AVC).olegek70.mkv
Format : Matroska
Format version : Version 2
File size : 1.45 GiB
Duration : 1h 53mn
Overall bit rate : 1 836 Kbps
Encoded date : UTC 2011-12-28 09:50:31
Writing application : mkvmerge v4.6.0 ('Still Crazy After All These Years') сборка от Apr 1 2011 21:01:49
Writing library : libebml v1.2.0 + libmatroska v1.1.0
Video
ID : 1
Format : AVC
Format/Info : Advanced Video Codec
Format profile : [email protected]
Format settings, CABAC : Yes
Format settings, ReFrames : 6 frames
Format settings, GOP : M=1, N=31
Codec ID : V_MPEG4/ISO/AVC
Duration : 1h 53mn
Bit rate : 1 386 Kbps
Width : 720 pixels
Height : 576 pixels
Display aspect ratio : 16:9
Frame rate : 25.000 fps
Standard : PAL
Color space : YUV
Chroma subsampling : 4:2:0
Bit depth : 8 bits
Scan type : Progressive
Bits/(Pixel*Frame) : 0.134
Stream size : 1.07 GiB (74%)
Writing library : x264 core 115 r1937 aa21558
Encoding settings : cabac=1 / ref=6 / deblock=1:-1:-1 / analyse=0x3:0x113 / me=hex / subme=6 / psy=1 / psy_rd=1.00:0.10 / mixed_ref=0 / me_range=16 / chroma_me=1 / trellis=1 / 8x8dct=1 / cqm=0 / deadzone=21,11 / fast_pskip=1 / chroma_qp_offset=-3 / threads=6 / sliced_threads=0 / nr=0 / decimate=1 / interlaced=0 / bluray_compat=0 / constrained_intra=0 / bframes=6 / b_pyramid=2 / b_adapt=2 / b_bias=0 / direct=3 / weightb=1 / open_gop=0 / weightp=0 / keyint=250 / keyint_min=25 / scenecut=40 / intra_refresh=0 / rc_lookahead=30 / rc=2pass / mbtree=1 / bitrate=1386 / ratetol=1.0 / qcomp=0.60 / qpmin=15 / qpmax=47 / qpstep=3 / cplxblur=20.0 / qblur=0.5 / ip_ratio=1.40 / aq=1:1.10
Audio
ID : 2
Format : AC-3
Format/Info : Audio Coding 3
Mode extension : CM (complete main)
Codec ID : A_AC3
Duration : 1h 53mn
Bit rate mode : Constant
Bit rate : 448 Kbps
Channel(s) : 6 channels
Channel positions : Front: L C R, Side: L R, LFE
Sampling rate : 48.0 KHz
Bit depth : 16 bits
Compression mode : Lossy
Stream size : 363 MiB (24%)





Download / Скачать

Хотите скачать бесплатно? Зарегистрируйтесь на сайте (ссылка на регистрацию). Pirat.ca - самый быстрый торрент трекер в рунете!

Как скачивать  ·   Что такое торрент  ·   Рейтинг и ограничения

Пост 29-Дек-2011 10:22 (спустя 2 часа 23 минуты)

Топик был перенесен из форума Наше Кино в форум Российские фильмы

Skinwalker
 

megamastor

2827

Пост 17-Мар-2012 15:12 (спустя 2 месяца 19 дней)

[Q] 

Отличный фильм! Начало с присягой особо втыкает, ну и еще много моментов !
[Профиль]  [ЛС] 

AXILLES

Штурман

Пост 19-Мар-2012 14:14 (спустя 1 день 23 часа)

[Q] 

[Профиль]  [ЛС] 

YSPAN

Морской Волк

Пост 20-Мар-2012 18:55 (спустя 1 день 4 часа)

[Q] 

aa
[Профиль]  [ЛС] 

kudrjavy

Флибустьер

Пост 04-Сен-2013 01:26 (спустя 1 год 5 месяцев)

[Q] 

Спсибо!))) Лови бочку

_________________
Девушки-как печеньки: ломаются,пока не намокнут...
[Профиль]  [ЛС] 

darc12345

Штурман

Пост 28-Фев-2015 12:35 (спустя 1 год 5 месяцев)

[Q] 

один из лучших фильмов российских
[Профиль]  [ЛС] 

dgundg

Лоцман

Пост 04-Май-2015 00:41 (спустя 2 месяца 3 дня)

[Q] 

649866один из лучших фильмов российских
[Профиль]  [ЛС] 
Показать сообщения:    
Ответить на тему

Текущее время: Сегодня 10:48

Часовой пояс: GMT + 4



Вы не можете начинать темы
Вы не можете отвечать на сообщения
Вы не можете редактировать свои сообщения
Вы не можете удалять свои сообщения
Вы не можете голосовать в опросах
Вы не можете прикреплять файлы к сообщениям
Вы не можете скачивать файлы

▼ Вниз