ML
     
  Уважаемый Гость!
Вы можете поддержать проект и зарегистрироваться у наших партнеров - онлайн-стратегия MyLands. При регистрации в игре Вы получите код, который сможете активировать после регистрации на pirat.ca и получить 1000 дублонов.

Ваш код:
1a5b0a965618b2c406d4279ec9924ee6282c60cf
 
     

Ночные забавы (Владимир Краснопольский, Валерий Усков) [1991 г., Комедия, мелодрама, DVDRip]

Ответить на тему
 
Автор
Сообщение

Пост 21-Сен-2013 04:37

[Q] 

gelexi

Лоцман

-Ночные забавы-- Производство: Россия
Режиссер: Владимир Краснопольский, Валерий Усков
Жанр: Комедия, мелодрама
Год выпуска: 1991 г.
Продолжительность: 02:15:34
В ролях: Александра Колкунова, Ирина Алферова, Евгений Евстигнеев, Альберт Филозов, Валентин Гафт, Борис Юрченко, Мария Виноградова, Игорь Суровцев-Описание: О непростых отношениях между матерью и дочерью.
Муж - подчиненный. Любовник - начальник. И "мудрая" взрослая дочь, которая пытается спасти репутацию отца и уличить мать, втягивая малознакомого рестранного саксофониста в этот фарс. Кто же больше наломает дров и как выкрутиться из щекотливой ситуации, оказавшись запертыми в маленькой квартирке?...
Последняя роль Евгения Евстигнеева.-Качество видео: DVDRip
Контейнер: AVI
Видео кодек: XviD
Аудио кодек: AC3
Видео: 544x384 (1.42:1), 25 fps, XviD MPEG-4 ~1128 kbps avg, 0.22 bit/pixel
Аудио: 48 kHz, AC3 Dolby Digital, 2/0 (L,R) ch, ~192.00 kbps avg
Cубтитры: отсутствуют
Общее
Полное имя : D:\SPARK\Раздачи\Ночные забавы\Ночные забавы\Ночные забавы 1сер.avi
Формат : AVI
Формат/Информация : Audio Video Interleave
Размер файла : 697 Мбайт
Продолжительность : 1 ч. 13 м.
Общий поток : 1330 Кбит/сек
Программа кодирования : FairUse Wizard - http://fairusewizard.com
Библиотека кодирования : The best and REALLY easy backup tool
Видео
Идентификатор : 0
Формат : MPEG-4 Visual
Профиль формата : Advanced [email protected]
Параметр BVOP формата : 1
Параметр QPel формата : Нет
Параметр GMC формата : Без точки перехода
Параметр матрицы формата : Default (MPEG)
Режим смешивания : Сжатый битовый поток
Идентификатор кодека : XVID
Идентификатор кодека/Подсказка : XviD
Продолжительность : 1 ч. 13 м.
Битрейт : 1128 Кбит/сек
Ширина : 544 пикселя
Высота : 384 пикселя
Соотношение сторон : 1,417
Частота кадров : 25,000 кадров/сек
Цветовое пространство : YUV
Субдискретизация насыщенности : 4:2:0
Битовая глубина : 8 бит
Тип развёртки : Прогрессивная
Метод сжатия : С потерями
Бит/(Пиксели*Кадры) : 0.216
Размер потока : 592 Мбайт (85%)
Библиотека кодирования : XviD 1.2.0.dev47 (UTC 2006-11-01)
Аудио
Идентификатор : 1
Формат : AC-3
Формат/Информация : Audio Coding 3
Расширение режима : CM (complete main)
Параметр Endianness формата : Big
Идентификатор кодека : 2000
Продолжительность : 1 ч. 13 м.
Вид битрейта : Постоянный
Битрейт : 192 Кбит/сек
Каналы : 2 канала
Расположение каналов : Front: L R
Частота : 48,0 КГц
Битовая глубина : 16 бит
Метод сжатия : С потерями
Размер потока : 101 Мбайт (14%)
Выравнивание : Разделение по промежуткам
Продолжительность промежутка : 40 мс. (1,00 видеокадр)
Время предзагрузки промежутка : 500 мс.
Download / Скачать

Хотите скачать бесплатно? Зарегистрируйтесь на сайте (ссылка на регистрацию). Pirat.ca - самый быстрый торрент трекер в рунете!

Как скачивать  ·   Что такое торрент  ·   Рейтинг и ограничения

Пост 21-Сен-2013 07:43 (спустя 3 часа)

Топик был перенесен из форума Наше кино (Трюм) в форум Российские фильмы
aleksey99
 

viktor41

Шкипер

Пост 15-Окт-2013 18:49 (спустя 24 дня)

[Q] 

Евстигнеев Класс ! Хорошая мелодрама ... cy
[Профиль]  [ЛС] 
Показать сообщения:    
Ответить на тему

Текущее время: Сегодня 23:53

Часовой пояс: GMT + 4



Вы не можете начинать темы
Вы не можете отвечать на сообщения
Вы не можете редактировать свои сообщения
Вы не можете удалять свои сообщения
Вы не можете голосовать в опросах
Вы не можете прикреплять файлы к сообщениям
Вы не можете скачивать файлы

▼ Вниз