ML
     
  Уважаемый Гость!
Вы можете поддержать проект и зарегистрироваться у наших партнеров - онлайн-стратегия MyLands. При регистрации в игре Вы получите код, который сможете активировать после регистрации на pirat.ca и получить 1000 дублонов.

Ваш код:
1a5b0a965618b2c406d4279ec9924ee6282c60cf
 
     

Афганский излом (Владимир Бортко) [1991 г., Военный, Драма, DVDRip]

Ответить на тему
 
Автор
Сообщение

Пост 21-Сен-2013 07:09

[Q] 

gelexi

Лоцман

-Афганский излом-- Производство: Россия
Режиссер: Владимир Бортко
Жанр: Военный, Драма
Год выпуска: 1991 г.
Продолжительность: 1:12:26
В ролях: Микеле Плачидо, Татьяна Догилева, Михаил Жигалов, Филипп Янковский, Алексей Серебряков, Нина Русланова, Рахимов, Артур Уваров, Виктор Проскурин, Сергей Исавнин, Юрий Кузнецов, Мусо Исоев, Бохадур Миралибеков, Леонид Кулагин, Владимир Еремин, Вали Лафити, Алесандро Стефанели, Иван Краско, Али Мухаммад, Юлиан Макаров-Описание: Майор Бандура не вернулся домой из Афганистана, хотя мог - до Союза оставалось два дня, а от последнего задания он отказался под предлогом мозоли на ноге. Но в последнюю минуту этот человек, выгнанный из Академии за то, что назвал генерала дураком, не смог оставить своих подчиненных. Его застрелил мальчишка-афганец, семью которого он случайно убил во время последнего боя в кишлаке. Майор знал, что пацан целится ему в спину, но не повернулся. И зритель поймет, почему. Исковерканные судьбы, жизнь и смерть нескольких персонажей, мужчин и женщин, в последние дни войны в Афганистане - тема этой антивоенной драмы, сделанной с незаурядной мощью и на высоком художественном уровне.-Качество видео: DVDRip
Контейнер: AVI
Видео кодек: XviD
Аудио кодек: AC3
Видео: 720x544 (1.32:1), 25 fps, XviD build 47, 1277 kbps avg, 0.13 bit/pixel
Аудио: 48 kHz, AC3 Dolby Digital, 2/0 (L,R) ch, 192.00 kbps avg
Cубтитры: отсутствуют
Профессиональные премии к/ст. «Ленфильм» 1991 года им. Г.Козинцева за режиссуру В.Бортко и им. А.Москвина оператору В.Федосову (1992).
Приз «За лучшую женскую роль» Т.Догилевой на КФ «Кинотавр» в Сочи (1992).
Общее
Полное имя : D:\SPARK\Раздачи\Афганский излом\Афганский излом.avi
Формат : AVI
Формат/Информация : Audio Video Interleave
Размер файла : 1,37 Гбайт
Продолжительность : 2 ч. 12 м.
Общий поток : 1476 Кбит/сек
Программа кодирования : VirtualDubMod 1.5.4.1 (build 2178/release)
Библиотека кодирования : VirtualDubMod build 2178/release
Видео
Идентификатор : 0
Формат : MPEG-4 Visual
Профиль формата : Advanced [email protected]
Параметр BVOP формата : 1
Параметр QPel формата : Нет
Параметр GMC формата : Без точки перехода
Параметр матрицы формата : Выборочная
Идентификатор кодека : XVID
Идентификатор кодека/Подсказка : XviD
Продолжительность : 2 ч. 12 м.
Битрейт : 1277 Кбит/сек
Ширина : 720 пикселей
Высота : 544 пикселя
Соотношение сторон : 4:3
Частота кадров : 25,000 кадров/сек
Цветовое пространство : YUV
Субдискретизация насыщенности : 4:2:0
Битовая глубина : 8 бит
Тип развёртки : Прогрессивная
Метод сжатия : С потерями
Бит/(Пиксели*Кадры) : 0.130
Размер потока : 1,18 Гбайт (87%)
Библиотека кодирования : XviD 1.2.0.dev47 (UTC 2006-11-01)
Аудио
Идентификатор : 1
Формат : AC-3
Формат/Информация : Audio Coding 3
Расширение режима : CM (complete main)
Параметр Endianness формата : Big
Идентификатор кодека : 2000
Продолжительность : 2 ч. 12 м.
Вид битрейта : Постоянный
Битрейт : 192 Кбит/сек
Каналы : 2 канала
Расположение каналов : Front: L R
Частота : 48,0 КГц
Битовая глубина : 16 бит
Метод сжатия : С потерями
Размер потока : 182 Мбайт (13%)
Выравнивание : Разделение по промежуткам
Продолжительность промежутка : 96 мс. (2,40 видеокадра)
Время предзагрузки промежутка : 96 мс.
Язык : Russian
Download / Скачать

Хотите скачать бесплатно? Зарегистрируйтесь на сайте (ссылка на регистрацию). Pirat.ca - самый быстрый торрент трекер в рунете!

Как скачивать  ·   Что такое торрент  ·   Рейтинг и ограничения



Последний раз редактировалось: gelexi (2013-09-21 10:53), всего редактировалось 1 раз

Пост 21-Сен-2013 11:12 (спустя 4 часа)

Топик был перенесен из форума Наше кино (Трюм) в форум Российские фильмы
aleksey99
 

Andrey Ivanovich

Пост 08-Окт-2013 20:47 (спустя 17 дней)

[Q] 

gelexi,
[Профиль]  [ЛС] 

Murzik

Штурман

Пост 14-Июн-2014 20:27 (спустя 8 месяцев 5 дней)

[Q] 

Сильное кино :) А. Серебряков ещё молодой, а ведь ему уже за 50 не давно перевалило, как быстро летит время.
Автору респект!!!
[Профиль]  [ЛС] 

Alexdok

Лоцман

9

Пост 04-Сен-2014 04:32 (спустя 2 месяца 19 дней)

[Q] 

Спасибо!!! Периодически пересматриваю. Лови бочку
[Профиль]  [ЛС] 
Показать сообщения:    
Ответить на тему

Текущее время: Сегодня 23:47

Часовой пояс: GMT + 4



Вы не можете начинать темы
Вы не можете отвечать на сообщения
Вы не можете редактировать свои сообщения
Вы не можете удалять свои сообщения
Вы не можете голосовать в опросах
Вы не можете прикреплять файлы к сообщениям
Вы не можете скачивать файлы

▼ Вниз