ML
     
  Уважаемый Гость!
Вы можете поддержать проект и зарегистрироваться у наших партнеров - онлайн-стратегия MyLands. При регистрации в игре Вы получите код, который сможете активировать после регистрации на pirat.ca и получить 1000 дублонов.

Ваш код:
062e2babcc491faeb40d496cf9a498ac3df6cdd0
 
     

Неслужебное задание 2: Взрыв на рассвете (Виталий Воробьев) [2005 г., боевик, драма, военный, DVDRip]

Ответить на тему
 
Автор
Сообщение

Пост 23-Сен-2013 23:53

[Q] 

Dominik

Морской Волк

-Неслужебное задание 2: Взрыв на рассвете -- Производство: Россия
Режиссер: Виталий Воробьев
Жанр: боевик, драма, военный, ...
Год выпуска: 2005 г.
Продолжительность: 01:26:37
Российская премьера: 6 мая 2005
В ролях: Павел Майков
Юрий Мосейчук, Дмитрий Клоков, Евгений Пронин, Кирилл Плетнёв, Лариса Наумкина, Александр Кольцов, Егор Рыбаков, Максим Дрозд, Юрий Гумиров-Описание: События разворачиваются в наши дни. Во время учений десантники натыкаются на систему мин времен Великой Отечественной. Тогда немцы планировали взорвать находившуюся рядом дамбу. Помочь разминировать ее может только старик Серба, живущий в соседнем селе… И тут всплывает история героя «Неслужебного задания», в 1943 году воевавшего в этих местах.-Качество видео: DVDRip
Контейнер: AVI
Видео кодек: XviD
Аудио кодек: AC3
Видео: 672x400 (1.68:1), 0.32 bit/pixel, 2179 kbps, 25 fps
Аудио: 48 kHz, 3/2 (L,C,R,l,r) + LFE ch, 224 kbps, AC3 Dolby Digital
Cубтитры: отсутствуют
Войны заканчиваются не тогда, когда под тем или иным документом поставлена маршальская подпись, а когда прекращают стрелять. Действие фильма происходит сразу после войны на территории Чехии. Германия капитулировала, но в тылах Советской Армии еще продолжают сопротивляться разрозненные фашистские отряды.
Командиру разведроты старшему лейтенанту Воронкову приказано обезвредить одну из таких немецких групп. Собственных сил не хватает, поэтому Воронков обращается к соседям — казачьему соединению. Задание поначалу кажется несложным. Но рядовая погоня превращается в смертельную схватку…
Общее
Полное имя : F:\Фильмы\Военные\Неслужебное задание 2 Взрыв на рассвете\Неслужебное задание 2 Взрыв на рассвете\Nesluzhebnoe.Zadanie.2.2004.XviD.DVDRip.avi
Формат : AVI
Формат/Информация : Audio Video Interleave
Размер файла : 1,46 Гбайт
Продолжительность : 1 ч. 26 м.
Общий поток : 2410 Кбит/сек
Программа кодирования : VirtualDubMod 1.5.4.1 (build 2178/release)
Библиотека кодирования : VirtualDubMod build 2178/release
Видео
Идентификатор : 0
Формат : MPEG-4 Visual
Профиль формата : Advanced [email protected]
Параметр BVOP формата : 1
Параметр QPel формата : Нет
Параметр GMC формата : Без точки перехода
Параметр матрицы формата : Выборочная
Идентификатор кодека : XVID
Идентификатор кодека/Подсказка : XviD
Продолжительность : 1 ч. 26 м.
Битрейт : 2179 Кбит/сек
Ширина : 672 пикселя
Высота : 400 пикселей
Соотношение сторон : 1,680
Частота кадров : 25,000 кадров/сек
Цветовое пространство : YUV
Субдискретизация насыщенности : 4:2:0
Битовая глубина : 8 бит
Тип развёртки : Прогрессивная
Метод сжатия : С потерями
Бит/(Пиксели*Кадры) : 0.324
Размер потока : 1,32 Гбайт (90%)
Библиотека кодирования : XviD 1.2.0.dev47 (UTC 2006-11-01)
Аудио
Идентификатор : 1
Формат : AC-3
Формат/Информация : Audio Coding 3
Расширение режима : CM (complete main)
Параметр Endianness формата : Big
Идентификатор кодека : 2000
Продолжительность : 1 ч. 26 м.
Вид битрейта : Постоянный
Битрейт : 224 Кбит/сек
Каналы : 6 каналов
Расположение каналов : Front: L C R, Side: L R, LFE
Частота : 48,0 КГц
Битовая глубина : 16 бит
Метод сжатия : С потерями
Размер потока : 139 Мбайт (9%)
Выравнивание : Разделение по промежуткам
Продолжительность промежутка : 96 мс. (2,40 видеокадра)
Время предзагрузки промежутка : 96 мс.
Download / Скачать

Хотите скачать бесплатно? Зарегистрируйтесь на сайте (ссылка на регистрацию). Pirat.ca - самый быстрый торрент трекер в рунете!

Как скачивать  ·   Что такое торрент  ·   Рейтинг и ограничения



Последний раз редактировалось: Dominik (2013-09-26 18:48), всего редактировалось 3 раз(а)

Andik-nn

Корсар

Пост 30-Дек-2013 13:44 (спустя 3 месяца 6 дней)

[Q] 

Спасибо! Супер!
[Профиль]  [ЛС] 

Dominik ®

Морской Волк

68

Пост 12-Апр-2014 14:16 (спустя 3 месяца 13 дней)

[Q] 

НЕ ЗА ЧТО!!!! ;)))

_________________
Раньше удивляло хамство, теперь удивляет вежливость!
[Профиль]  [ЛС] 
Показать сообщения:    
Ответить на тему

Текущее время: Сегодня 17:42

Часовой пояс: GMT + 4



Вы не можете начинать темы
Вы не можете отвечать на сообщения
Вы не можете редактировать свои сообщения
Вы не можете удалять свои сообщения
Вы не можете голосовать в опросах
Вы не можете прикреплять файлы к сообщениям
Вы не можете скачивать файлы

▼ Вниз