ML
     
  Уважаемый Гость!
Вы можете поддержать проект и зарегистрироваться у наших партнеров - онлайн-стратегия MyLands. При регистрации в игре Вы получите код, который сможете активировать после регистрации на pirat.ca и получить 1000 дублонов.

Ваш код:
aec9a4a936117fb450ba69e519991a0465404b1d
 
     

Ожерелье (Александр Хван) [2013 г., мелодрама, SATRip]

Ответить на тему
 
Автор
Сообщение

Пост 07-Окт-2013 02:06

[Q] 

ara1205

-Ожерелье-- Производство: Россия
Год выпуска: 2013 г.
Жанр: мелодрама
Продолжительность: 01:29:34
Российская премьера: 6 октября 2013-Режиссер: Александр Хван-В ролях: Мария Куликова, Екатерина Андреева (II), Мария Болонкина, Ольга Филиппова, Кирилл Гребенщиков, Андрей Биланов, Сергей Мухин, Юлия Васильева, Григорий Рыжиков, Галина Шмакова, Владимир Павленко-Описание: Марина, красивая и талантливая профессорская дочь, влачит жалкое существование. После смерти отца она все силы кинула на то, чтобы помочь своему женатому возлюбленному Юрию продвинуться по службе. А став деканом, Юрий, во избежание сплетен, оставил Марину на должности лаборантки.
Уже давно вся жизнь Марины — пустые обещания, которыми ее кормит любовник. Она ждет, когда он уйдет от жены, ждет интересной работы — но всё впустую, и жизнь проходит мимо.
Когда Марина совсем отчаивается, происходит чудо — старая подруга Лика, как добрая фея, наряжает ее в чудесное платье и невиданной красоты ожерелье и отправляет на встречу выпускников. Но сказка оказывается недолгой — вскоре у Марины крадут бесценное ожерелье, и ее жизнь превращается в кошмар…
Рейтинг фильма- -Качество видео: SATRip
Контейнер: AVI
Видео кодек: DivX
Аудио кодек: AC3
Видео: 720x400, 25,000 fps, 1977 kbps avg, 0.275 bit/pixel
Аудио: 48 kHz, MPEG Layer 3, 2 ch, ~128.00 kbps avg
Cубтитры: отсутствуют-
Общее
Полное имя : D:\Ромкино\Ожерелье\Ozherelje.[pirat.ca].avi
Формат : AVI
Формат/Информация : Audio Video Interleave
Размер файла : 1,37 Гбайт
Продолжительность : 1 ч. 32 м.
Общий поток : 2115 Кбит/сек
Библиотека кодирования : VirtualDub-MPEG2 build 24600/release
Видео
Идентификатор : 0
Формат : MPEG-4 Visual
Параметр BVOP формата : Да
Параметр QPel формата : Нет
Параметр GMC формата : Без точки перехода
Параметр матрицы формата : Default (H.263)
Идентификатор кодека : DX50
Идентификатор кодека/Подсказка : DivX 5
Продолжительность : 1 ч. 32 м.
Битрейт : 1977 Кбит/сек
Ширина : 720 пикселей
Высота : 400 пикселей
Соотношение сторон : 16:9
Частота кадров : 25,000 кадров/сек
Цветовое пространство : YUV
Субдискретизация насыщенности : 4:2:0
Битовая глубина : 8 бит
Тип развёртки : Прогрессивная
Метод сжатия : С потерями
Бит/(Пиксели*Кадры) : 0.275
Размер потока : 1,28 Гбайт (93%)
Библиотека кодирования : Intel(R) MPEG-4 encoder based on Intel(R) IPP 6.1 build 137.20[6.1.137.763]
Аудио
Идентификатор : 1
Формат : MPEG Audio
Версия формата : Version 1
Профиль формата : Layer 3
Режим : Joint stereo
Расширение режима : MS Stereo
Идентификатор кодека : 55
Идентификатор кодека/Подсказка : MP3
Продолжительность : 1 ч. 32 м.
Вид битрейта : Постоянный
Битрейт : 128 Кбит/сек
Каналы : 2 канала
Частота : 48,0 КГц
Метод сжатия : С потерями
Размер потока : 84,7 Мбайт (6%)
Выравнивание : Разделение по промежуткам
Продолжительность промежутка : 40 мс. (1,00 видеокадр)
Время предзагрузки промежутка : 500 мс.
Библиотека кодирования : LAME3.98.2
-
-
Download / Скачать

Хотите скачать бесплатно? Зарегистрируйтесь на сайте (ссылка на регистрацию). Pirat.ca - самый быстрый торрент трекер в рунете!

Как скачивать  ·   Что такое торрент  ·   Рейтинг и ограничения

esai

Лоцман

Пост 07-Окт-2013 07:11 (спустя 5 часов)

[Q] 

походу не стоит даже думать о том что бы это качать
[Профиль]  [ЛС] 

keppi

Морской Волк

1896

Пост 07-Окт-2013 10:56 (спустя 3 часа)

[Q] 

Ой как стыдно-то... Ну ты юморист... =))

_________________
Если нет своей цели в жизни, то будешь работать на того, у кого она есть.
[Профиль]  [ЛС] 

Kaelis

Морской Волк

Пост 13-Окт-2013 17:22 (спустя 6 дней)

[Q] 

это нечто не стоющее смотреть ..
[Профиль]  [ЛС] 

yulya230784

Морской Волк

927

Пост 03-Ноя-2013 14:52 (спустя 20 дней)

[Q] 

А я всё таки рискну посмотреть
[Профиль]  [ЛС] 
Показать сообщения:    
Ответить на тему

Текущее время: Сегодня 02:22

Часовой пояс: GMT + 4



Вы не можете начинать темы
Вы не можете отвечать на сообщения
Вы не можете редактировать свои сообщения
Вы не можете удалять свои сообщения
Вы не можете голосовать в опросах
Вы не можете прикреплять файлы к сообщениям
Вы не можете скачивать файлы

▼ Вниз