ML
     
  Уважаемый Гость!
Вы можете поддержать проект и зарегистрироваться у наших партнеров - онлайн-стратегия MyLands. При регистрации в игре Вы получите код, который сможете активировать после регистрации на pirat.ca и получить 1000 дублонов.

Ваш код:
69f316be79867e9bf99caee9682d20bb11964507
 
     

Икона сезона (Сергей Швыдкой, Фуад Ибрагимбеков) [2013 г., драма, комедия, DVDRip]

Ответить на тему
 
Автор
Сообщение

Пост 10-Окт-2013 07:40

[Q] 

aleksey99

-Икона сезона--«Хорошо живёт богема, только...»- Производство: Россия
Режиссер: Сергей Швыдкой, Фуад Ибрагимбеков
Жанр: драма, комедия
Год выпуска: 2013 г.
Продолжительность: 01:19:17-Мировая премьера: 28 марта 2013, «Самокат»
Российская премьера: 7 октября 2013, «Новый Диск»-В ролях: Екатерина Климова, Евгений Цыганов, Павел Баршак, Александр Ратников, Евгения Осипова, Алексей Барабаш, Юлия Маврина, Кристина Романец, Родион Юрин, Дарья Сазонова-Описание: В основе фильма — пьеса Ольги Мухиной. Действие происходит в вымышленном городе, который очень напоминает Москву. Герои фильма, среди которых продюсеры, телеведущие, диджеи, много говорят о любви, но не способны почувствовать ее. Они рассуждают о том, чего не понимают. Они обаятельны, успешны и живут в удобном и мягком мире, который качественно соответствует счету на их кредитной карте.
Они ведут активный, но пустой и праздный образ жизни. И в какой-то момент героя начинает одолевать страх, что его скоро не станет. Его уютный мир начинает рушится, обнажая окружающую реальность, которая несет расплату за ошибки прошлого и вместе с тем — новое будущее. И каким оно будет, зависит только от того, сможет ли герой разобраться в себе.- -Качество видео: DVDRip
Контейнер: AVI
Видео кодек: XviD
Аудио кодек: AC3
Видео: 720x304 (2.37:1), 25 fps, XviD build 50 ~2011 kbps avg, 0.37 bit/pixel
Аудио: 48 kHz, AC3 Dolby Digital, 3/2 (L,C,R,l,r) + LFE ch, ~448 kbps
Cубтитры: Отсутствуют
Общее
Полное имя : H:\Torrent2\Ikona.sezona.2013.O.DVDRip.1400MB_[pirat.ca].avi
Формат : AVI
Формат/Информация : Audio Video Interleave
Размер файла : 1,37 Гбайт
Продолжительность : 1 ч. 19 м.
Общий поток : 2470 Кбит/сек
Программа кодирования : VirtualDubMod 1.5.10.3 | www.virtualdub-fr.org || (build 2550/release)
Библиотека кодирования : VirtualDubMod build 2550/release
Видео
Идентификатор : 0
Формат : MPEG-4 Visual
Профиль формата : Advanced [email protected]
Параметр BVOP формата : 2
Параметр QPel формата : Нет
Параметр GMC формата : Без точки перехода
Параметр матрицы формата : Default (MPEG)
Идентификатор кодека : XVID
Идентификатор кодека/Подсказка : XviD
Продолжительность : 1 ч. 19 м.
Битрейт : 2012 Кбит/сек
Ширина : 720 пикселей
Высота : 304 пикселя
Соотношение сторон : 2,35:1
Частота кадров : 25,000 кадров/сек
Цветовое пространство : YUV
Субдискретизация насыщенности : 4:2:0
Битовая глубина : 8 бит
Тип развёртки : Прогрессивная
Метод сжатия : С потерями
Бит/(Пиксели*Кадры) : 0.368
Размер потока : 1,11 Гбайт (81%)
Библиотека кодирования : XviD 1.2.1 (UTC 2008-12-04)
Аудио
Идентификатор : 1
Формат : AC-3
Формат/Информация : Audio Coding 3
Расширение режима : CM (complete main)
Параметр Endianness формата : Big
Идентификатор кодека : 2000
Продолжительность : 1 ч. 19 м.
Вид битрейта : Постоянный
Битрейт : 448 Кбит/сек
Каналы : 6 каналов
Расположение каналов : Front: L C R, Side: L R, LFE
Частота : 48,0 КГц
Битовая глубина : 16 бит
Метод сжатия : С потерями
Размер потока : 254 Мбайт (18%)
Выравнивание : Разделение по промежуткам
Продолжительность промежутка : 40 мс. (1,00 видеокадр)
Время предзагрузки промежутка : 500 мс.
Трейлер
Download / Скачать

Хотите скачать бесплатно? Зарегистрируйтесь на сайте (ссылка на регистрацию). Pirat.ca - самый быстрый торрент трекер в рунете!

Как скачивать  ·   Что такое торрент  ·   Рейтинг и ограничения

wirtual

Гроза морей

Пост 12-Окт-2013 07:52 (спустя 2 дня)

[Q] 

не внушает, особенно после отзывов на кинопоиске
не в обиду автору

_________________
не будешь делиться - останешься одноклеточным
[Профиль]  [ЛС] 

Kaelis

Морской Волк

Пост 13-Окт-2013 15:54 (спустя 1 день 8 часов)

[Q] 

когда нечего делать можно посмотреть, а так....
[Профиль]  [ЛС] 

viktor41

Шкипер

Пост 13-Окт-2013 21:12 (спустя 5 часов)

[Q] 

Нормуль ! !COOL!
[Профиль]  [ЛС] 

Полтос

Флибустьер

Пост 17-Окт-2013 14:24 (спустя 3 дня)

[Q] 

Поражаюсь, как эта дрянь о зажравшихся и абсолютно пустых людях (ну прям как с первого канала), нюхающих и глотающих разную дрянь, тусящих и праздно прожгающих жизнь, получила государственное финансирование Министерства культуры РФ???
Отказать Трафик потрачен зря!

_________________
Первый закон Прапорщика: Всё что поднимаемо - относительно!)
[Профиль]  [ЛС] 
Показать сообщения:    
Ответить на тему

Текущее время: Сегодня 14:34

Часовой пояс: GMT + 4



Вы не можете начинать темы
Вы не можете отвечать на сообщения
Вы не можете редактировать свои сообщения
Вы не можете удалять свои сообщения
Вы не можете голосовать в опросах
Вы не можете прикреплять файлы к сообщениям
Вы не можете скачивать файлы

▼ Вниз