ML
     
  Уважаемый Гость!
Вы можете поддержать проект и зарегистрироваться у наших партнеров - онлайн-стратегия MyLands. При регистрации в игре Вы получите код, который сможете активировать после регистрации на pirat.ca и получить 1000 дублонов.

Ваш код:
062e2babcc491faeb40d496cf9a498ac3df6cdd0
 
     

Олимпиус инферно (Игорь Волошин) [2009г., боевик, драма, DVDRip]

Ответить на тему
 
Автор
Сообщение

Пост 10-Окт-2013 20:44

[Q] 

srg078rus

Корсар

-Олимпиус инферно-- Производство: Россия
Режиссер: Игорь Волошин
Жанр: боевик, драма
Год выпуска: 2009 г.
Продолжительность: 01:29:39
Российская премьера: 29 марта 2009
Дата выхода DVD: 19 марта 2009
В ролях: Полина Филоненко, Генри Давид, Вадим Цаллати, Адгур Малия, Елена Храмова, Артур Гургенян, Венера Скверия, Адгур Джения, Сергей Сангулия, Сабина Ахмедова-Описание: 08.08.08. Молодой энтомолог из США, Майкл, и его подруга, московская журналистка Женя, приезжают в Южную Осетию для съемок фильма о редком виде бабочек. Но этой же ночью грузинские войска нападают на Южную Осетию. Камеры Майкла снимают начало операции.
Наши герои понимают, что в их руках оказались доказательства, которые поставят точку в наступившей информационной войне. Но об этом узнают и грузинские спецслужбы. Чтобы донести миру правду, Майклу и Жене нужно прорваться через оккупированную территорию в разрушенный, но не сломленный Цхинвал.-Качество видео: DVDRip
Контейнер: AVI
Видео кодек: XviD
Аудио кодек: AC3
Видео: 704х384, 1918kbps, 25fps, 0.284 bit/pixel
Аудио: 256kbps, 2ch, 48kHz
Cубтитры: отсутствуют
Общее
Полное имя : E:\Shara\Фильмы\Олимпиус Инферно 2009 DVDRip.avi
Формат : AVI
Формат/Информация : Audio Video Interleave
Размер файла : 1,37 Гбайт
Продолжительность : 1 ч. 29 м.
Общий поток : 2184 Кбит/сек
Программа кодирования : VirtualDubMod 1.5.10.2 (build 2540/release)
Библиотека кодирования : VirtualDubMod build 2540/release
Видео
Идентификатор : 0
Формат : MPEG-4 Visual
Профиль формата : Advanced [email protected]
Параметр BVOP формата : 2
Параметр QPel формата : Нет
Параметр GMC формата : Без точки перехода
Параметр матрицы формата : Default (MPEG)
Режим смешивания : Сжатый битовый поток
Идентификатор кодека : XVID
Идентификатор кодека/Подсказка : XviD
Продолжительность : 1 ч. 29 м.
Битрейт : 1918 Кбит/сек
Ширина : 704 пикселя
Высота : 384 пикселя
Соотношение сторон : 1,85:1
Частота кадров : 25,000 кадров/сек
Цветовое пространство : YUV
Субдискретизация насыщенности : 4:2:0
Битовая глубина : 8 бит
Тип развёртки : Прогрессивная
Метод сжатия : С потерями
Бит/(Пиксели*Кадры) : 0.284
Размер потока : 1,20 Гбайт (88%)
Библиотека кодирования : XviD 1.2.1 (UTC 2008-12-04)
Аудио
Идентификатор : 1
Формат : AC-3
Формат/Информация : Audio Coding 3
Расширение режима : CM (complete main)
Параметр Endianness формата : Big
Идентификатор кодека : 2000
Продолжительность : 1 ч. 29 м.
Вид битрейта : Постоянный
Битрейт : 256 Кбит/сек
Каналы : 2 канала
Расположение каналов : Front: L R
Частота : 48,0 КГц
Битовая глубина : 16 бит
Метод сжатия : С потерями
Размер потока : 164 Мбайт (12%)
Выравнивание : Разделение по промежуткам
Продолжительность промежутка : 40 мс. (1,00 видеокадр)
Время предзагрузки промежутка : 500 мс.
Download / Скачать

Хотите скачать бесплатно? Зарегистрируйтесь на сайте (ссылка на регистрацию). Pirat.ca - самый быстрый торрент трекер в рунете!

Как скачивать  ·   Что такое торрент  ·   Рейтинг и ограничения

viktor41

Шкипер

Пост 13-Окт-2013 19:18 (спустя 2 дня 22 часа)

[Q] 

Большое спасибо ! cy aa
[Профиль]  [ЛС] 
Показать сообщения:    
Ответить на тему

Текущее время: Сегодня 17:43

Часовой пояс: GMT + 4



Вы не можете начинать темы
Вы не можете отвечать на сообщения
Вы не можете редактировать свои сообщения
Вы не можете удалять свои сообщения
Вы не можете голосовать в опросах
Вы не можете прикреплять файлы к сообщениям
Вы не можете скачивать файлы

▼ Вниз