ML
     
  Уважаемый Гость!
Вы можете поддержать проект и зарегистрироваться у наших партнеров - онлайн-стратегия MyLands. При регистрации в игре Вы получите код, который сможете активировать после регистрации на pirat.ca и получить 1000 дублонов.

Ваш код:
4399ab8611ee7f8a22949d2ee7634160dd2db7e0
 
     

Моя фамилия Шилов (Андрей Элинсон) [2013 г., Криминал, SATRip]

Ответить на тему
 
Автор
Сообщение

Пост 11-Окт-2013 22:42

[Q] 

cergo

Гроза морей

-Моя фамилия Шилов--
Производство: Россия, кинокомпания "Панорама", "Форвард-Фильм"
Режиссер: Андрей Элинсон
Жанр: Криминал
Год выпуска: 2013 г.
Продолжительность: 01:31:17
Российская премьера: 11 октября 2013-В ролях:
Александр Устюгов, Константин Стрельников, Всеволод Цурило, Сергей Перегудов, Светлана Смирнова-Кацагаджиева, Мария Синяева, Геннадий Алимпиев, Алексей Федотов, Влада Макейчик, Игорь Клочков, Юрий Орлов, Сергей Колос, Егор Закреничный, Виталий Исаков-Описание:
После увольнения из ГУВД Роман Шилов решает уделить время своей личной жизни. Но встрече с Максаковой, с которой он давно мечтал объясниться, мешает звонок от жены Михаила Краснова, показания которого когда-то помогли посадить за решётку опасного убийцу. Надя Краснова в слезах сообщает Шилову, что Михаила похитили неизвестные. Бросившись на выручку старого приятеля, Шилов попадает в криминальный водоворот, разрушивший спокойную жизнь провинциального городка, в котором Красновы владели автомастерской. Местный вор в законе по прозвищу Профессор ищет пропавший воровской «общак» и обвиняет в его исчезновении Краснова.-
Качество видео: SATRip
Контейнер: AVI
Видео кодек: DivX
Аудио кодек: MP3
Видео: 720x400 (1.80:1), 25 fps, DivX Codec 5.x or 6.x ~2080 kbps avg, 0.29 bit/pixel
Аудио: 48 kHz, MPEG Layer 3, 2 ch, ~128.00 kbps avg
Cубтитры: отсутствуют
Общее
Полное имя : D:\Архив\ФИЛЬМЫ\Moja.familija.Shilov.2013.SATRip.avi
Формат : AVI
Формат/Информация : Audio Video Interleave
Размер файла : 1,42 Гбайт
Продолжительность : 1 ч. 31 м.
Общий поток : 2221 Кбит/сек
Программа кодирования : transcode-1.1.5
Видео
Идентификатор : 0
Формат : MPEG-4 Visual
Параметр BVOP формата : Да
Параметр QPel формата : Нет
Параметр GMC формата : Без точки перехода
Параметр матрицы формата : Default (H.263)
Идентификатор кодека : DX50
Идентификатор кодека/Подсказка : DivX 5
Продолжительность : 1 ч. 31 м.
Битрейт : 2080 Кбит/сек
Ширина : 720 пикселей
Высота : 400 пикселей
Соотношение сторон : 16:9
Частота кадров : 25,000 кадров/сек
Цветовое пространство : YUV
Субдискретизация насыщенности : 4:2:0
Битовая глубина : 8 бит
Тип развёртки : Прогрессивная
Метод сжатия : С потерями
Бит/(Пиксели*Кадры) : 0.289
Размер потока : 1,33 Гбайт (94%)
Библиотека кодирования : Intel(R) MPEG-4 encoder based on Intel(R) IPP 6.1 build 137.20[6.1.137.763]
Аудио
Идентификатор : 1
Формат : MPEG Audio
Версия формата : Version 1
Профиль формата : Layer 3
Режим : Joint stereo
Идентификатор кодека : 55
Идентификатор кодека/Подсказка : MP3
Продолжительность : 1 ч. 31 м.
Вид битрейта : Постоянный
Битрейт : 128 Кбит/сек
Каналы : 2 канала
Частота : 48,0 КГц
Метод сжатия : С потерями
Размер потока : 83,6 Мбайт (6%)
Выравнивание : Соединение по промежуткам
Продолжительность промежутка : 24 мс. (0,60 видеокадр)
Время предзагрузки промежутка : 48 мс.
Библиотека кодирования : LAME3.98.2
Download / Скачать

Хотите скачать бесплатно? Зарегистрируйтесь на сайте (ссылка на регистрацию). Pirat.ca - самый быстрый торрент трекер в рунете!

Как скачивать  ·   Что такое торрент  ·   Рейтинг и ограничения

Пост 12-Окт-2013 02:13 (спустя 3 часа)

Топик был перенесен из форума Наше кино (Трюм) в форум Новинки (HD|DVD|BD| TV|SAT|PDTV| - Rips)
ara1205
 

platon18

Гроза морей

Пост 12-Окт-2013 13:46 (спустя 15 часов)

[Q] 

опа! молодца! спс, качну
[Профиль]  [ЛС] 

Johni12367

Морской Волк

Пост 12-Окт-2013 16:55 (спустя 3 часа)

[Q] 

посмотрим чТо за кал!!!!
[Профиль]  [ЛС] 

viktor41

Шкипер

Пост 13-Окт-2013 19:04 (спустя 1 день 2 часа)

[Q] 

Хороший фильм ! Спасибо . Спасибо!!!
[Профиль]  [ЛС] 

veter510

Флибустьер

Пост 14-Окт-2013 07:04 (спустя 11 часов)

[Q] 

Раздающему спасибо за очередную сказку про ментов....честных и справедливых. По ящику как-то не удосужился взглянуть....
[Профиль]  [ЛС] 

kolobok0

Морской Волк

151

Пост 14-Окт-2013 07:27 (спустя 23 минуты)

[Q] 

вполне себе добротный фильм
[Профиль]  [ЛС] 

zapad - 08

Шкипер

Пост 14-Окт-2013 15:25 (спустя 7 часов)

[Q] 

435386Раздающему спасибо за очередную сказку про ментов....честных и справедливых.
az Посмотреть сказку , посмеяться и забыть .
[Профиль]  [ЛС] 

srg078rus

Корсар

97

Пост 14-Окт-2013 17:57 (спустя 2 часа 31 минута)

[Q] 

Лови бочку
Сериал ништяк был, спасибо!!!

_________________
[Профиль]  [ЛС] 

_Marks_

Флибустьер

Пост 14-Окт-2013 21:08 (спустя 3 часа)

[Q] 

смотрится как дешевый сериал про "ментов"...
[Профиль]  [ЛС] 

Kaelis

Морской Волк

Пост 15-Окт-2013 09:28 (спустя 12 часов)

[Q] 

стоит посмотреть или нет ?
[Профиль]  [ЛС] 

fishman

Корсар

Пост 23-Окт-2013 19:08 (спустя 8 дней)

[Q] 

Как я понял, это заключительный фильм к сериалу «Ментовские войны»?
Во всяком случае действие там происходит после событий 7-го сезона.
Отдельно смотреть тоже можно, но без сериала будет смотреться немного сказочно, а сериал - это один из немногих которые более-менее правдиво отражат службу в полициии.
ЗЫ. Рома на борт отгрузил!

_________________
|___|___|___|___|___|___|___|__|__
__|__|__|_Биться головой_|___|___|
|___|___|___|__сюда!!___|___|__|__
__|___|___|___|___|___|___|__|__
[Профиль]  [ЛС] 

manu

Пост 28-Ноя-2013 18:43 (спустя 1 месяц 4 дня)

[Q] 

спасибо. скачаю. Хороший сериал был.
[Профиль]  [ЛС] 

Элфрей

Штурман

Пост 17-Ноя-2014 21:28 (спустя 11 месяцев 19 дней)

[Q] 

Неплохой фильм Если нравятся Ментовские войны смотреть
[Профиль]  [ЛС] 

Scorpion7474

Флибустьер

Пост 18-Ноя-2014 15:14 (спустя 17 часов)

[Q] 

!COOL! Лови бочку
[Профиль]  [ЛС] 
Показать сообщения:    
Ответить на тему

Текущее время: Сегодня 10:45

Часовой пояс: GMT + 4



Вы не можете начинать темы
Вы не можете отвечать на сообщения
Вы не можете редактировать свои сообщения
Вы не можете удалять свои сообщения
Вы не можете голосовать в опросах
Вы не можете прикреплять файлы к сообщениям
Вы не можете скачивать файлы

▼ Вниз