ML
     
  Уважаемый Гость!
Вы можете поддержать проект и зарегистрироваться у наших партнеров - онлайн-стратегия MyLands. При регистрации в игре Вы получите код, который сможете активировать после регистрации на pirat.ca и получить 1000 дублонов.

Ваш код:
74c28610d77aaac24ba694c4128f3b9b46b04220
 
     

Интимные места (Наталья Меркулова, Алексей Чупов) [2013 г., драма, мелодрама, DVDRip] Лицензия

Ответить на тему
 
Автор
Сообщение

Пост 17-Окт-2013 18:28

[Q] 

ara1205

-Интимные места-- Производство: Россия
Год выпуска: 2013 г.
Жанр: драма, мелодрама
Продолжительность: 01:16:13
Дата выхода DVD: 15 октября 2013-Режиссер: Наталья Меркулова, Алексей Чупов-В ролях: Юрий Колокольников, Олеся Судзиловская, Юлия Ауг, Никита Тарасов, Ксения Каталымова, Алексей Чупов, Екатерина Щеглова, Тимур Бадалбейли, Динара Янковская, Павел Артемьев-Описание: История о современных москвичах среднего класса и личных тайнах, которые они прячут за своим достатком и успехом.- -Качество видео: DVDRip
Контейнер: AVI
Видео кодек: XviD
Аудио кодек: AC3
Видео: 720x304, 25 fps, 2084 kbps avg, 0.381 bit/pixel
Аудио: AC3 Dolby Digital, 48 kHz, 3/2 (L,C,R,l,r) + LFE ch, 448 kbps
Cубтитры: отсутствуют-
Общее
Полное имя : C:\Users\Ромик\Pictures\Интимные места\Intimnie.mesta.2013.O.DVDRip.1400MB.avi
Формат : AVI
Формат/Информация : Audio Video Interleave
Размер файла : 1,35 Гбайт
Продолжительность : 1 ч. 16 м.
Общий поток : 2542 Кбит/сек
Программа кодирования : VirtualDubMod 1.5.10.2 (build 2540/release)
Библиотека кодирования : VirtualDubMod build 2540/release
Видео
Идентификатор : 0
Формат : MPEG-4 Visual
Профиль формата : Advanced [email protected]
Параметр BVOP формата : 2
Параметр QPel формата : Нет
Параметр GMC формата : Без точки перехода
Параметр матрицы формата : Выборочная
Идентификатор кодека : XVID
Идентификатор кодека/Подсказка : XviD
Продолжительность : 1 ч. 16 м.
Битрейт : 2084 Кбит/сек
Ширина : 720 пикселей
Высота : 304 пикселя
Соотношение сторон : 2,35:1
Частота кадров : 25,000 кадров/сек
Цветовое пространство : YUV
Субдискретизация насыщенности : 4:2:0
Битовая глубина : 8 бит
Тип развёртки : Прогрессивная
Метод сжатия : С потерями
Бит/(Пиксели*Кадры) : 0.381
Размер потока : 1,11 Гбайт (82%)
Библиотека кодирования : XviD 1.2.1 (UTC 2008-12-04)
Аудио
Идентификатор : 1
Формат : AC-3
Формат/Информация : Audio Coding 3
Расширение режима : CM (complete main)
Параметр Endianness формата : Big
Идентификатор кодека : 2000
Продолжительность : 1 ч. 16 м.
Вид битрейта : Постоянный
Битрейт : 448 Кбит/сек
Каналы : 6 каналов
Расположение каналов : Front: L C R, Side: L R, LFE
Частота : 48,0 КГц
Битовая глубина : 16 бит
Метод сжатия : С потерями
Размер потока : 244 Мбайт (18%)
Выравнивание : Разделение по промежуткам
Продолжительность промежутка : 40 мс. (1,00 видеокадр)
Время предзагрузки промежутка : 500 мс.
-
-
Download / Скачать

Хотите скачать бесплатно? Зарегистрируйтесь на сайте (ссылка на регистрацию). Pirat.ca - самый быстрый торрент трекер в рунете!

Как скачивать  ·   Что такое торрент  ·   Рейтинг и ограничения

Naughty

Лоцман

Пост 17-Окт-2013 19:02 (спустя 34 минуты)

[Q] 

bj пятый скрин самый зачётный.
[Профиль]  [ЛС] 

ara1205 ®

69738

Пост 17-Окт-2013 19:06 (спустя 4 минуты)

[Q] 

436782 bj пятый скрин самый зачётный.
Ну блин старался el
[Профиль]  [ЛС] 

Doctor-ZLO

Гроза морей

438

Пост 17-Окт-2013 19:14 (спустя 8 минут)

[Q] 

да на 5 скрине,мужик думает случится ли чепе)))

_________________
[Профиль]  [ЛС] 

peezdeath

Штурман

Пост 18-Окт-2013 02:35 (спустя 7 часов)

[Q] 

как фильмец ребята? стоит посмотреть ?
[Профиль]  [ЛС] 

mogaleksej

Лоцман

Пост 18-Окт-2013 04:50 (спустя 2 часа 14 минут)

[Q] 

муть неимоверная !!!
[Профиль]  [ЛС] 

kolobok0

Морской Волк

151

Пост 18-Окт-2013 07:31 (спустя 2 часа 41 минута)

[Q] 

шлак, надо думать?
[Профиль]  [ЛС] 

Vinyard

Корсар

Пост 18-Окт-2013 08:56 (спустя 1 час 24 минуты)

[Q] 

чуть жену не отвел на этот фильм. как же хорошо, что есть интернет, рецензии и трейлеры в нем.
[Профиль]  [ЛС] 

DellFlyer

Флибустьер

165

Пост 18-Окт-2013 11:38 (спустя 2 часа 42 минуты)

[Q] 

Отказать Трафик потрачен зря!
[Профиль]  [ЛС] 

Stanislav

Шкипер

Пост 18-Окт-2013 21:23 (спустя 9 часов)

[Q] 

На большого любителя...
[Профиль]  [ЛС] 

s.v.l

Корсар

Пост 05-Дек-2013 03:00 (спустя 1 месяц 17 дней)

[Q] 

О чём этот фильм???
Да почти ни о чём!
Жаль только, что именно этим почти ничем, и живут многие из нас!
Но как акцентировано в этом фильме, всё это временно.
Хто...
[Профиль]  [ЛС] 
Показать сообщения:    
Ответить на тему

Текущее время: Сегодня 09:57

Часовой пояс: GMT + 4



Вы не можете начинать темы
Вы не можете отвечать на сообщения
Вы не можете редактировать свои сообщения
Вы не можете удалять свои сообщения
Вы не можете голосовать в опросах
Вы не можете прикреплять файлы к сообщениям
Вы не можете скачивать файлы

▼ Вниз