ML
     
  Уважаемый Гость!
Вы можете поддержать проект и зарегистрироваться у наших партнеров - онлайн-стратегия MyLands. При регистрации в игре Вы получите код, который сможете активировать после регистрации на pirat.ca и получить 1000 дублонов.

Ваш код:
ef8b3e8cd07bec918273586d22e5aaf18e0ae925
 
     

Сводная сестра (Андрей Канивченко) [2013 г., мелодрама, SATRip]

Ответить на тему
 
Автор
Сообщение

Пост 27-Окт-2013 11:07

[Q] 

Jigsaw

 
-Сводная сестра-- Производство: Россия / Кинокомпания "Студия Паламеда", Продюсерский центр "Фабула"
Год выпуска: 2013 г.
Жанр: мелодрама
Продолжительность: 02:59:14 (~ 00:46:00 серия)
Мировая премьера: 26 октября 2013 (Россия-1)
Перевод: Не требуется
Режиссер: Андрей Канивченко-В ролях: Людмила Свитова, Вероника Пляшкевич, Анатолий Лобоцкий, Валентина Лосовская, Олег Ткачёв, Станислав Бондаренко, Александр Молчанов (II), Андрей Карако, Александр Гиренок, Александр Ефремов (II), Александр Зеленковский, Светлана Аникей, Оксана Лесная, Евгений Ивкович, Юрий Евдачков, Галина Кухальская, Сергей Власов (IV)-Описание: Родители главной героини всегда любили друг друга, и жила она в полной семье, зная о том, что она любимый ребенок. Но после смерти отца, из его прошлого начали всплывать тайны. До знакомства с ее матерью у него была другая женщина, которая родила от него ребенка. И теперь, сводная сестра через много лет объявилась...- *-Качество видео: SATRip
Контейнер: AVI
Видео кодек: DivX
Аудио кодек: MP3
Видео: MPEG4, DivX 5, 720x400 (16:9), 25.000 fps, 1 601 Kbps (0.222 bit/pixel)
Аудио: Rus: MP3, 48.0 KHz, 2 ch, 128 Kbps, CBR (оригинал)
Cубтитры: отсутствуют-*Так как в базе Кинопоиска сего фильма нет, предоставлена ссылка на Кино-Театр.-
Общее
Полное имя : D:\Svodnaja.sestra.2013.SATRip\Svodnaja.sestra.(1).2013.SATRip.avi
Формат : AVI
Формат/Информация : Audio Video Interleave
Размер файла : 573 Мбайт
Продолжительность : 46 м.
Общий поток : 1742 Кбит/сек
Программа кодирования : transcode-1.1.5
Видео
Идентификатор : 0
Формат : MPEG-4 Visual
Параметр BVOP формата : Да
Параметр QPel формата : Нет
Параметр GMC формата : Без точки перехода
Параметр матрицы формата : Default (H.263)
Идентификатор кодека : DX50
Идентификатор кодека/Подсказка : DivX 5
Продолжительность : 46 м.
Битрейт : 1601 Кбит/сек
Ширина : 720 пикселей
Высота : 400 пикселей
Соотношение сторон : 16:9
Частота кадров : 25,000 кадров/сек
Цветовое пространство : YUV
Субдискретизация насыщенности : 4:2:0
Битовая глубина : 8 бит
Тип развёртки : Прогрессивная
Метод сжатия : С потерями
Бит/(Пиксели*Кадры) : 0.222
Размер потока : 527 Мбайт (92%)
Библиотека кодирования : Intel(R) MPEG-4 encoder based on Intel(R) IPP 6.1 build 137.20[6.1.137.763]
Аудио
Идентификатор : 1
Формат : MPEG Audio
Версия формата : Version 1
Профиль формата : Layer 3
Режим : Joint stereo
Расширение режима : MS Stereo
Идентификатор кодека : 55
Идентификатор кодека/Подсказка : MP3
Продолжительность : 46 м.
Вид битрейта : Постоянный
Битрейт : 128 Кбит/сек
Каналы : 2 канала
Частота : 48,0 КГц
Метод сжатия : С потерями
Размер потока : 42,1 Мбайт (7%)
Выравнивание : Соединение по промежуткам
Продолжительность промежутка : 24 мс. (0,60 видеокадр)
Время предзагрузки промежутка : 48 мс.
Библиотека кодирования : LAME3.98.2-Общее
Полное имя : D:\Svodnaja.sestra.2013.SATRip\Svodnaja.sestra.(2).2013.SATRip.avi
Формат : AVI
Формат/Информация : Audio Video Interleave
Размер файла : 509 Мбайт
Продолжительность : 40 м.
Общий поток : 1738 Кбит/сек
Библиотека кодирования : VirtualDub-MPEG2 build 24600/release
Видео
Идентификатор : 0
Формат : MPEG-4 Visual
Параметр BVOP формата : Да
Параметр QPel формата : Нет
Параметр GMC формата : Без точки перехода
Параметр матрицы формата : Default (H.263)
Идентификатор кодека : DX50
Идентификатор кодека/Подсказка : DivX 5
Продолжительность : 40 м.
Битрейт : 1600 Кбит/сек
Ширина : 720 пикселей
Высота : 400 пикселей
Соотношение сторон : 16:9
Частота кадров : 25,000 кадров/сек
Цветовое пространство : YUV
Субдискретизация насыщенности : 4:2:0
Битовая глубина : 8 бит
Тип развёртки : Прогрессивная
Метод сжатия : С потерями
Бит/(Пиксели*Кадры) : 0.222
Размер потока : 469 Мбайт (92%)
Библиотека кодирования : Intel(R) MPEG-4 encoder based on Intel(R) IPP 6.1 build 137.20[6.1.137.763]
Аудио
Идентификатор : 1
Формат : MPEG Audio
Версия формата : Version 1
Профиль формата : Layer 3
Режим : Joint stereo
Расширение режима : MS Stereo
Идентификатор кодека : 55
Идентификатор кодека/Подсказка : MP3
Продолжительность : 40 м.
Вид битрейта : Постоянный
Битрейт : 128 Кбит/сек
Каналы : 2 канала
Частота : 48,0 КГц
Метод сжатия : С потерями
Размер потока : 37,5 Мбайт (7%)
Выравнивание : Разделение по промежуткам
Продолжительность промежутка : 40 мс. (1,00 видеокадр)
Время предзагрузки промежутка : 500 мс.
Библиотека кодирования : LAME3.98.2-Общее
Полное имя : D:\Svodnaja.sestra.2013.SATRip\Svodnaja.sestra.(3).2013.SATRip.avi
Формат : AVI
Формат/Информация : Audio Video Interleave
Размер файла : 585 Мбайт
Продолжительность : 47 м.
Общий поток : 1738 Кбит/сек
Библиотека кодирования : VirtualDub-MPEG2 build 24600/release
Видео
Идентификатор : 0
Формат : MPEG-4 Visual
Параметр BVOP формата : Да
Параметр QPel формата : Нет
Параметр GMC формата : Без точки перехода
Параметр матрицы формата : Default (H.263)
Идентификатор кодека : DX50
Идентификатор кодека/Подсказка : DivX 5
Продолжительность : 47 м.
Битрейт : 1600 Кбит/сек
Ширина : 720 пикселей
Высота : 400 пикселей
Соотношение сторон : 16:9
Частота кадров : 25,000 кадров/сек
Цветовое пространство : YUV
Субдискретизация насыщенности : 4:2:0
Битовая глубина : 8 бит
Тип развёртки : Прогрессивная
Метод сжатия : С потерями
Бит/(Пиксели*Кадры) : 0.222
Размер потока : 539 Мбайт (92%)
Библиотека кодирования : Intel(R) MPEG-4 encoder based on Intel(R) IPP 6.1 build 137.20[6.1.137.763]
Аудио
Идентификатор : 1
Формат : MPEG Audio
Версия формата : Version 1
Профиль формата : Layer 3
Режим : Joint stereo
Расширение режима : MS Stereo
Идентификатор кодека : 55
Идентификатор кодека/Подсказка : MP3
Продолжительность : 47 м.
Вид битрейта : Постоянный
Битрейт : 128 Кбит/сек
Каналы : 2 канала
Частота : 48,0 КГц
Метод сжатия : С потерями
Размер потока : 43,1 Мбайт (7%)
Выравнивание : Разделение по промежуткам
Продолжительность промежутка : 40 мс. (1,00 видеокадр)
Время предзагрузки промежутка : 500 мс.
Библиотека кодирования : LAME3.98.2-Общее
Полное имя : D:\Svodnaja.sestra.2013.SATRip\Svodnaja.sestra.(4).2013.SATRip.avi
Формат : AVI
Формат/Информация : Audio Video Interleave
Размер файла : 564 Мбайт
Продолжительность : 45 м.
Общий поток : 1745 Кбит/сек
Видео
Идентификатор : 0
Формат : MPEG-4 Visual
Параметр BVOP формата : Да
Параметр QPel формата : Нет
Параметр GMC формата : Без точки перехода
Параметр матрицы формата : Default (H.263)
Идентификатор кодека : DX50
Идентификатор кодека/Подсказка : DivX 5
Продолжительность : 45 м.
Битрейт : 1600 Кбит/сек
Ширина : 720 пикселей
Высота : 400 пикселей
Соотношение сторон : 16:9
Частота кадров : 25,000 кадров/сек
Цветовое пространство : YUV
Субдискретизация насыщенности : 4:2:0
Битовая глубина : 8 бит
Тип развёртки : Прогрессивная
Метод сжатия : С потерями
Бит/(Пиксели*Кадры) : 0.222
Размер потока : 517 Мбайт (92%)
Библиотека кодирования : Intel(R) MPEG-4 encoder based on Intel(R) IPP 6.1 build 137.20[6.1.137.763]
Аудио
Идентификатор : 1
Формат : MPEG Audio
Версия формата : Version 1
Профиль формата : Layer 3
Режим : Joint stereo
Расширение режима : MS Stereo
Идентификатор кодека : 55
Идентификатор кодека/Подсказка : MP3
Продолжительность : 45 м.
Вид битрейта : Постоянный
Битрейт : 128 Кбит/сек
Каналы : 2 канала
Частота : 48,0 КГц
Метод сжатия : С потерями
Размер потока : 41,4 Мбайт (7%)
Выравнивание : Соединение по промежуткам
Продолжительность промежутка : 24 мс. (0,60 видеокадр)
Библиотека кодирования : LAME3.98.2
-
- -
Download / Скачать

Хотите скачать бесплатно? Зарегистрируйтесь на сайте (ссылка на регистрацию). Pirat.ca - самый быстрый торрент трекер в рунете!

Как скачивать  ·   Что такое торрент  ·   Рейтинг и ограничения

viktor41

Шкипер

Пост 27-Окт-2013 12:32 (спустя 1 час 24 минуты)

[Q] 

Спасибо ! Автору респект!!!
[Профиль]  [ЛС] 

Пост 27-Окт-2013 13:33 (спустя 1 час 1 минута)

Топик был перенесен из форума Наше кино (Трюм) в форум Новинки (HD|DVD|BD| TV|SAT|PDTV| - Rips)
ara1205
 
Показать сообщения:    
Ответить на тему

Текущее время: Сегодня 18:40

Часовой пояс: GMT + 4



Вы не можете начинать темы
Вы не можете отвечать на сообщения
Вы не можете редактировать свои сообщения
Вы не можете удалять свои сообщения
Вы не можете голосовать в опросах
Вы не можете прикреплять файлы к сообщениям
Вы не можете скачивать файлы

▼ Вниз