ML
     
  Уважаемый Гость!
Вы можете поддержать проект и зарегистрироваться у наших партнеров - онлайн-стратегия MyLands. При регистрации в игре Вы получите код, который сможете активировать после регистрации на pirat.ca и получить 1000 дублонов.

Ваш код:
93dbf9fbdfa06c41d3b5a2c3921149ba36168c41
 
     

Я любил Вас больше жизни (Расим Исмайлов) [1985 г., военный, DVDRip]

Ответить на тему
 
Автор
Сообщение

Пост 27-Окт-2013 20:01

[Q] 

vasilich619

Флибустьер

-Я любил Вас больше жизни-- Производство: СССР, Азербайджан,
Студия: Азербайджанфильм
Режиссер: Расим Исмайлов
Жанр: военный
Год выпуска: 1985 г.
Продолжительность: 01:21:4
Дата выхода DVD: 30 апреля 2010
В ролях: Рамиз Новрузов, Виктор Тарасов, Александр Денисенко, Шахмар Алекперов, Виктор Ильичев, Александр Поляков, Михаил Петров, Олег Соколдынский, Игорь Неупокое,в Гульнара Ибрагимова...-Описание: О жизненном и боевом пути Героя Советского Союза, генерала танковых войск Ази Асланова, геройски погибшего в боях под Елгавой за три месяца до Победы. Время действия — Великая Отечественная война.-Качество видео: DVDRip
Контейнер: AVI
Видео кодек: DivX
Аудио кодек: MP3
Видео: 720x336 (2.2:1), 25.000 fps, MPEG4, DivX 5, 2189Kbps, 0.362Bits/Pixel
Аудио: русский, оригинал, 48.0 KHz, 2 ch, MP3, 192 Kbps
Cубтитры: отсутствуют
Да, в годы войны советские войска неоднократно попадали в окружение, откуда вырывались к своим очень немногие, однако эти события были результатом не сознательного коварства их начальников, но следствием немецкого превосходства в тактике и стратегии.Фильм достоин внимания. 9-10
General
Complete name : E:\Фильмы\Для Раздач\Ja_lubil_vas_DVDRip.avi
Format : AVI
Format/Info : Audio Video Interleave
File size : 1.37 GiB
Duration : 1h 21mn
Overall bit rate : 2 391 Kbps
Writing application : VirtualDubModRus 1.5.10.2 (build 2542/release)
Writing library : VirtualDubMod build 2542/release
Video
ID : 0
Format : MPEG-4 Visual
Format settings, BVOP : Yes
Format settings, QPel : No
Format settings, GMC : No warppoints
Format settings, Matrix : Default (H.263)
Codec ID : DX50
Codec ID/Hint : DivX 5
Duration : 1h 21mn
Bit rate : 2 189 Kbps
Width : 720 pixels
Height : 336 pixels
Display aspect ratio : 2.2
Frame rate : 25.000 fps
Resolution : 24 bits
Colorimetry : 4:2:0
Scan type : Progressive
Bits/(Pixel*Frame) : 0.362
Stream size : 1.25 GiB (92%)
Writing library : DivX 6.8.3 (UTC 2008-06-07)
Audio
ID : 1
Format : MPEG Audio
Format version : Version 1
Format profile : Layer 3
Codec ID : 55
Codec ID/Hint : MP3
Duration : 1h 21mn
Bit rate mode : Constant
Bit rate : 192 Kbps
Channel(s) : 2 channels
Sampling rate : 48.0 KHz
Resolution : 16 bits
Stream size : 112 MiB (8%)
Alignment : Aligned on interleaves
Interleave, duration : 40 ms (1.00 video frame)
Interleave, preload duration : 504 ms
Writing library : LAME3.97
Encoding settings : -m j -V 4 -q 1 -b 192
Download / Скачать

Хотите скачать бесплатно? Зарегистрируйтесь на сайте (ссылка на регистрацию). Pirat.ca - самый быстрый торрент трекер в рунете!

Как скачивать  ·   Что такое торрент  ·   Рейтинг и ограничения

viktor41

Шкипер

Пост 27-Окт-2013 20:29 (спустя 28 минут)

[Q] 

Спасибо! Автору респект!!! Супер!
[Профиль]  [ЛС] 

Пост 27-Окт-2013 21:32 (спустя 1 час 2 минуты)

Топик был перенесен из форума Наше кино (Трюм) в форум Российские фильмы
kugesan
 

cergo

Гроза морей

20037

Пост 27-Окт-2013 21:45 (спустя 1 час 16 минут)

[Q] 

Благодарствую. Раздающему респект!
[Профиль]  [ЛС] 

Кротанг

Юнга

Пост 13-Янв-2014 22:34 (спустя 2 месяца 17 дней)

[Q] 

Обязательно посмотрю. Автору респект!!!
[Профиль]  [ЛС] 
Показать сообщения:    
Ответить на тему

Текущее время: Сегодня 20:24

Часовой пояс: GMT + 4



Вы не можете начинать темы
Вы не можете отвечать на сообщения
Вы не можете редактировать свои сообщения
Вы не можете удалять свои сообщения
Вы не можете голосовать в опросах
Вы не можете прикреплять файлы к сообщениям
Вы не можете скачивать файлы

▼ Вниз