ML
     
  Уважаемый Гость!
Вы можете поддержать проект и зарегистрироваться у наших партнеров - онлайн-стратегия MyLands. При регистрации в игре Вы получите код, который сможете активировать после регистрации на pirat.ca и получить 1000 дублонов.

Ваш код:
ec3b26eefbcdc72e08e9fd33c6846bb2ca10f8b1
 
     

Тихая застава (Сергей Маховиков) [2010 г., драма, военный, BDRip]

Ответить на тему
 
Автор
Сообщение

Пост 28-Окт-2013 00:38

[Q] 

vasilich619

Флибустьер

-Тихая застава --«Краем мы попали на разлом. Раем нам покажется потом...» Производство: Россия
Режиссер: Сергей Маховиков
Жанр: драма, военный
Год выпуска: 2010 г.
Продолжительность: 01:32:09
Российская премьера: 20 января 2011
Дата выхода DVD: 1 февраля 2011, «Флагман-Трейд», «CD Land»
Дата выхода Blu-Ray: 31 мая 2011, «Флагман-Трейд»-В ролях: Андрей Чадов, Сергей Селин, Игорь Савочкин, Раджаб Хусейнов, Фаридуншо Рахматуллоев, Нина Корниенко, Нино Нинидзе, Юрий Коновалов, Александр Алёшкин, Азамат Нигманов...-Описание: Бой на 12-й пограничной заставе Московского погранотряда в Республике Таджикистан произошел во вторник 13 июля 1993 года. Афганские и таджикские боевики попытались прорваться на территорию этой страны. Российские военные 11 часов отражали атаки противника, 25 человек погибло. После этого наши отступили. Позднее в тот же день застава была отбита. По итогам боя шестеро пограничников были удостоены звания Героя Российской Федерации, в том числе четверо — посмертно.
Качество видео: BDRip
Контейнер: MKV
Видео кодек: MPEG4
Аудио кодек: AC3
Видео: AVC, 912x388 (2.35:1), 23.976 fps, 2 934 Kbps
Аудио: AC-3, 48.0 KHz, 6 ch, 448 Kbps
Cубтитры: отсутствуют
Что могу сказать… Достаточно не плохой фильм, показывающий на протяжении половины фильма жизнь солдат, как они веселятся мечтают, фотографируются на дембельский альбом, ни у кого и в мыслях не было что так все трагично окончится.
Драматичный конец следовало ожидать, так как этот сюжет можно было предугадать, но все же если отбросить все недочеты, то это кино вызывает сильную грусть и боль за тех парней. Основанность на реальных событиях лишь усиливает это чувство! Разговоры на счет «Бородатого дядьки», как стереотипа главного злодея боевика, мне кажутся не обоснованными. Конечно не все бородатые дядьки обязательно диверсанты, боевики, или талибы.
Обстановка на заставе из разряда утопий, все солдаты очень дружелюбны и даже ведут себя как дети, бегают друг за другом, смеются. Если бы в армии везде было такое взаимопонимание между солдатами, то наверно бы все мечтали бы просто туда попасть! Мудрый дедушка сказал главному злодею что не нужна им эта война, она не правильная, и что он 4 года воевал за свою землю. За эти слова этому увожаемому дедушке отрезали голову. Это означало только одно, никакого уважения к старшим у них нет, они воюют за свой народ, но пускают своих женщин на минное поле чтобы они подорвались, а затем и убивают ребенка взрывчаткой!
У этого фильма много минусов и недочетов, но не смотря на это он всеравно вызывает чувство переживания и сострадания за героев, особенно сама концовка.
Игра героев на твердую 4, особенно хочется отметить Селина. Его игра была просто превосходна! Посмотреть этот фильм все же стоит. Нужно помнить наших героев, и пускай они не настоящие в фильме, но мы то знаем что за этими кадрами, стоят обычные парни которые стали героями России, почет и слава им!!!
General
Complete name : E:\Фильмы\Военные\Tihaya.Zastava.2010.RUS.BDRip-AVC.AC3.-HQ-ViDEO.mkv
Format : Matroska
File size : 2.18 GiB
Duration : 1h 32mn
Overall bit rate : 3 383 Kbps
Movie name : Tihaya Zastava / 2011 / Release by Vaippp / HQ-ViDEO
Encoded date : UTC 2011-06-17 10:31:46
Writing application : mkvmerge v4.8.0 ('I Got The...') сборка от May 24 2011 03:12:58
Writing library : libebml v1.2.0 + libmatroska v1.1.0
Video
ID : 1
Format : AVC
Format/Info : Advanced Video Codec
Format profile : [email protected]
Format settings, CABAC : Yes
Format settings, ReFrames : 10 frames
Muxing mode : Container [email protected]
Codec ID : V_MPEG4/ISO/AVC
Duration : 1h 32mn
Bit rate : 2 867 Kbps
Nominal bit rate : 2 934 Kbps
Width : 912 pixels
Height : 388 pixels
Display aspect ratio : 2.35
Frame rate : 23.976 fps
Resolution : 24 bits
Colorimetry : 4:2:0
Scan type : Progressive
Bits/(Pixel*Frame) : 0.338
Stream size : 1.84 GiB (85%)
Title : BDRip by Vaippp
Writing library : x264 core 115 r1995 c1e60b9
Encoding settings : cabac=1 / ref=10 / deblock=1:-2:-2 / analyse=0x3:0x133 / me=umh / subme=9 / psy=1 / psy_rd=1.05:0.00 / mixed_ref=1 / me_range=32 / chroma_me=1 / trellis=2 / 8x8dct=1 / cqm=0 / deadzone=21,11 / fast_pskip=0 / chroma_qp_offset=-2 / threads=12 / sliced_threads=0 / nr=0 / decimate=1 / interlaced=0 / bluray_compat=0 / constrained_intra=0 / bframes=9 / b_pyramid=2 / b_adapt=2 / b_bias=0 / direct=3 / weightb=1 / open_gop=0 / weightp=2 / keyint=250 / keyint_min=23 / scenecut=40 / intra_refresh=0 / rc_lookahead=40 / rc=2pass / mbtree=0 / bitrate=2934 / ratetol=1.0 / qcomp=0.65 / qpmin=1 / qpmax=65 / qpstep=4 / cplxblur=20.0 / qblur=0.5 / vbv_maxrate=40000 / vbv_bufsize=30000 / nal_hrd=none / ip_ratio=1.40 / pb_ratio=1.30 / aq=2:0.80 / zones=127617,132572,q=35
Audio
ID : 2
Format : AC-3
Format/Info : Audio Coding 3
Codec ID : A_AC3
Duration : 1h 32mn
Bit rate mode : Constant
Bit rate : 448 Kbps
Channel(s) : 6 channels
Channel positions : Front: L C R, Surround: L R, LFE
Sampling rate : 48.0 KHz
Stream size : 295 MiB (13%)
Title : Original
Language : Russian
сборы в России:$214 100
Download / Скачать

Хотите скачать бесплатно? Зарегистрируйтесь на сайте (ссылка на регистрацию). Pirat.ca - самый быстрый торрент трекер в рунете!

Как скачивать  ·   Что такое торрент  ·   Рейтинг и ограничения

Пост 28-Окт-2013 17:41 (спустя 17 часов)

Топик был перенесен из форума Наше кино (Трюм) в форум Российские фильмы
kugesan
 

kinstintin

Гроза морей

Пост 29-Окт-2013 07:51 (спустя 1 день 7 часов)

[Q] 

Спасибо!!!
Вы лучшие!
[Профиль]  [ЛС] 
Показать сообщения:    
Ответить на тему

Текущее время: Сегодня 03:51

Часовой пояс: GMT + 4



Вы не можете начинать темы
Вы не можете отвечать на сообщения
Вы не можете редактировать свои сообщения
Вы не можете удалять свои сообщения
Вы не можете голосовать в опросах
Вы не можете прикреплять файлы к сообщениям
Вы не можете скачивать файлы

▼ Вниз