ML
     
  Уважаемый Гость!
Вы можете поддержать проект и зарегистрироваться у наших партнеров - онлайн-стратегия MyLands. При регистрации в игре Вы получите код, который сможете активировать после регистрации на pirat.ca и получить 1000 дублонов.

Ваш код:
bc31d8aef74c92e19ad67e34a8fa63c3b9b812fb
 
     

Опять Новый! (Глухарь. Опять новый) (Игорь Холодков) [2011 г., Комедия, SATRip]

Ответить на тему
 
Автор
Сообщение

Пост 01-Янв-2012 01:06

[Q] 

goxakrauter

Опять Новый!
Глухарь. Опять новый
- Год выпуска: 2011
Жанр: Комедия
Продолжительность: 01:27:06-Режиссер: Игорь Холодков
В ролях: Максим Аверин, Денис Рожков, Виктория Тарасова, Владимир Фекленко, Владислав Котлярский, Александр Бобров-Описание: В «обезьянник» районного ОВД Москвы доставляют задержанного типа лет 60-ти в халате и тапочках. Этот видавший виды бомж утверждает, что он Максим Аверин, снимавшийся в сериале «Глухарь» в роли Сергея Глухарёва! Что это за старик и найдет ли полиция настоящего Аверина? Как и зачем окажутся на театральной сцене Денис Рожков, он же — Антошин, и Александр Бобров, он же — Агапов? Разобраться в этих запутанных историях помогут те, кто снимался во всенародно любимом сериале: Виктория Тарасова, Владислав Котлярский, Владимир Фекленко и другие. Также зрителям предстоит увидеть уникальные документальные кадры кастинга любимых героев на главные роли в «Глухаре» и от души посмеяться над курьезными моментами, не вошедшими в сериал.-Сэмпл, Кинопоиск-Источник/Качество: SATRip
Формат: AVI
Видео кодек: DivX
Аудио кодек: MP3
Видео: DivX 5 704x384 25.00fps 1 900 Kbps
Аудио: MPEG Audio Layer 3 48000Hz stereo 192kbps-
General
Format : AVI
Format/Info : Audio Video Interleave
File size : 1.28 GiB
Duration : 1h 27mn
Overall bit rate : 2 102 Kbps
Writing library : VirtualDub-MPEG2 build 24600/release
Video
ID : 0
Format : MPEG-4 Visual
Format settings, BVOP : 1
Format settings, QPel : No
Format settings, GMC : No warppoints
Format settings, Matrix : Default (H.263)
Muxing mode : Packed bitstream
Codec ID : DX50
Codec ID/Hint : DivX 5
Duration : 1h 27mn
Bit rate : 1 900 Kbps
Width : 704 pixels
Height : 384 pixels
Display aspect ratio : 16:9
Frame rate : 25.000 fps
Color space : YUV
Chroma subsampling : 4:2:0
Bit depth : 8 bits
Scan type : Progressive
Compression mode : Lossy
Bits/(Pixel*Frame) : 0.281
Stream size : 1.16 GiB (90%)
Writing library : DivX 6.8.5 (UTC 2009-08-20)
Audio
ID : 1
Format : MPEG Audio
Format version : Version 1
Format profile : Layer 3
Mode : Joint stereo
Codec ID : 55
Codec ID/Hint : MP3
Duration : 1h 27mn
Bit rate mode : Constant
Bit rate : 192 Kbps
Channel(s) : 2 channels
Sampling rate : 48.0 KHz
Compression mode : Lossy
Stream size : 120 MiB (9%)
Alignment : Split accross interleaves
Interleave, duration : 40 ms (1.00 video frame)
Interleave, preload duration : 500 ms



-Поздравляю всех с Новым Годом! Желаю вам всем удачи в новом году, счастья, радости, любви и всего самого-самого!
С Новым Годом, друзья!
Download / Скачать

Хотите скачать бесплатно? Зарегистрируйтесь на сайте (ссылка на регистрацию). Pirat.ca - самый быстрый торрент трекер в рунете!

Как скачивать  ·   Что такое торрент  ·   Рейтинг и ограничения



Последний раз редактировалось: goxakrauter (2012-01-01 01:19), всего редактировалось 1 раз

Серегазмей

Корсар

186

Пост 02-Янв-2012 02:12 (спустя 1 день 1 час)

[Q] 

Спасибо, конечно, но фильм получился откровенным уг. После такого классного сериала снять такую убогую новогоднюю серию..лучше не смотреть, дабы не портить впечатление о самом сериале.

_________________
[Профиль]  [ЛС] 

goxakrauter ®

4540

Пост 02-Янв-2012 20:00 (спустя 17 часов)

[Q] 

Серегазмей, да, согласен, фильм получился ни о чем.
[Профиль]  [ЛС] 

boatswain

Морской Волк

Пост 02-Янв-2012 20:10 (спустя 9 минут)

[Q] 

это надо было постараться, чтоб такую бездарщину снять!.. cu
[Профиль]  [ЛС] 

goxakrauter ®

4540

Пост 02-Янв-2012 20:16 (спустя 5 минут)

[Q] 

boatswain, сняли его наверное с целью, чтобы не скучали о сериале)
Типа "у нас закончился потенциал"))
[Профиль]  [ЛС] 

PrMoriarty

Шкипер

Пост 17-Фев-2012 20:54 (спустя 1 месяц 15 дней)

[Q] 

после таких отзывов, как-то стремновато теперь смотреть)))

_________________
Пиратам скидка на фильтры для воды 10%
[Профиль]  [ЛС] 

giantsite1

Лоцман

1

Пост 12-Апр-2012 13:10 (спустя 1 месяц 23 дня)

[Q] 


Глухарь - Дневники вампира
[Профиль]  [ЛС] 

tommek

Морской Волк

231

Пост 24-Апр-2012 16:15 (спустя 12 дней)

[Q] 


_________________
[Профиль]  [ЛС] 

CHARLI2236

1098

Пост 25-Июн-2012 18:09 (спустя 2 месяца 1 день)

[Q] 

благодарю

_________________
[Профиль]  [ЛС] 
Показать сообщения:    
Ответить на тему

Текущее время: Сегодня 11:58

Часовой пояс: GMT + 4



Вы не можете начинать темы
Вы не можете отвечать на сообщения
Вы не можете редактировать свои сообщения
Вы не можете удалять свои сообщения
Вы не можете голосовать в опросах
Вы не можете прикреплять файлы к сообщениям
Вы не можете скачивать файлы

▼ Вниз