ML
     
  Уважаемый Гость!
Вы можете поддержать проект и зарегистрироваться у наших партнеров - онлайн-стратегия MyLands. При регистрации в игре Вы получите код, который сможете активировать после регистрации на pirat.ca и получить 1000 дублонов.

Ваш код:
4399ab8611ee7f8a22949d2ee7634160dd2db7e0
 
     

Человек ниоткуда (Дмитрий Фикс) [2010 г., боевик, DVDRip]

Ответить на тему
 
Автор
Сообщение

Пост 02-Ноя-2013 19:30

[Q] 

vasilich619

Флибустьер

-Человек ниоткуда-- Производство: Россия
Режиссер: Дмитрий Фикс
Жанр: боевик
Год выпуска: 2010 г.
Продолжительность: 01:37:37
Российская премьера: 5 декабря 2010
Дата выхода DVD: 24 мая 2011, «Русское счастье»
В ролях: ролях: Владимир Епифанцев, Александр Борисов, Александр Кузнецов, Кирилл Кяро, Сергей Легостаев, Наталья Лесниковская, Евгения Морозова, Михаил Хмуров, Евгений Атарик, Алексей Афонин...-Описание: Капитан отдела внедрения МВД Сергей Кутепов возвращается домой в Москву после выполнения опасного задания. Вернувшись, он узнает, что его жена Марина изменяет ему. И это — не единственная проблема, которая свалилась на Кутепова. При попытке внедрения в банду наркоторговца Кесаря погибает друг Кутепова, офицер отдела внедрения Тихонов. Начальство Кутепова подозревает, что Тихонова выдал банде кто-то из своих. Кутепову поручают внедриться в банду Кесаря и найти «крота»-
Качество видео: DVDRip
Контейнер: AVI
Видео кодек: XviD
Аудио кодек: AC3
Видео: 720x432 (1.667), 25.000 fps, MPEG4, XviD, 1 564 Kbps
Аудио: Русский, оригинал, 48.0 KHz, 6 ch, AC-3, 448 Kbps, CBR
Cубтитры: отсутствуют
General
Complete name : E:\Фильмы\НАШЕ-КИНО\chelovek_niotkuda.avi
Format : AVI
Format/Info : Audio Video Interleave
File size : 1.37 GiB
Duration : 1h 37mn
Overall bit rate : 2 008 Kbps
Writing application : VirtualDubMod 1.5.10.2 (build 2540/release)
Writing library : VirtualDubMod build 2540/release
Video
ID : 0
Format : MPEG-4 Visual
Format profile : Streaming [email protected]
Format settings, BVOP : Yes
Format settings, QPel : No
Format settings, GMC : No warppoints
Format settings, Matrix : Default (H.263)
Muxing mode : Packed bitstream
Codec ID : XVID
Codec ID/Hint : XviD
Duration : 1h 37mn
Bit rate : 1 564 Kbps
Width : 720 pixels
Height : 432 pixels
Display aspect ratio : 1.667
Frame rate : 25.000 fps
Resolution : 24 bits
Colorimetry : 4:2:0
Scan type : Progressive
Bits/(Pixel*Frame) : 0.201
Stream size : 1.07 GiB (78%)
Writing library : XviD 1.0.3 (UTC 2004-12-20)
Audio
ID : 1
Format : AC-3
Format/Info : Audio Coding 3
Codec ID : 2000
Duration : 1h 34mn
Bit rate mode : Constant
Bit rate : 448 Kbps
Channel(s) : 6 channels
Channel positions : Front: L C R, Surround: L R, LFE
Sampling rate : 48.0 KHz
Stream size : 303 MiB (22%)
Alignment : Split accross interleaves
Interleave, duration : 41 ms (1.03 video frame)
Interleave, preload duration : 500 ms
Download / Скачать

Хотите скачать бесплатно? Зарегистрируйтесь на сайте (ссылка на регистрацию). Pirat.ca - самый быстрый торрент трекер в рунете!

Как скачивать  ·   Что такое торрент  ·   Рейтинг и ограничения

Пост 02-Ноя-2013 19:39 (спустя 9 минут)

Топик был перенесен из форума Наше кино (Трюм) в форум Российские фильмы
aleksey99
 

viktor41

Шкипер

Пост 02-Ноя-2013 19:40 (спустя 10 минут)

[Q] 

vasilich619, Спасибо ! Классный фильм . Автору респект!!! Супер!
[Профиль]  [ЛС] 
Показать сообщения:    
Ответить на тему

Текущее время: Сегодня 10:48

Часовой пояс: GMT + 4



Вы не можете начинать темы
Вы не можете отвечать на сообщения
Вы не можете редактировать свои сообщения
Вы не можете удалять свои сообщения
Вы не можете голосовать в опросах
Вы не можете прикреплять файлы к сообщениям
Вы не можете скачивать файлы

▼ Вниз