ML
     
  Уважаемый Гость!
Вы можете поддержать проект и зарегистрироваться у наших партнеров - онлайн-стратегия MyLands. При регистрации в игре Вы получите код, который сможете активировать после регистрации на pirat.ca и получить 1000 дублонов.

Ваш код:
74c28610d77aaac24ba694c4128f3b9b46b04220
 
     

Новогодняя sms-ка (Олег Погодин) [2011 г., семейный, музыка, SATRip]

Ответить на тему
 
Автор
Сообщение

Пост 01-Янв-2012 10:25

[Q] 

zyyx

--Новогодняя sms-ка-- Год выпуска: 2011
Мировая премьера: 31 декабря 2011
Производство: Россия
Жанр: семейный, музыка
Продолжительность: 01:51:14
Перевод: Не требуется
Режиссер: Олег Погодин
В ролях: Алексей Воробьев, Юлия Ковальчук, Алексей Чумаков, Лев Лещенко, Владимир Винокур, Владимир Пресняков, Олег Газманов, Светлана Светикова, Михаил Багдасаров
Описание: В новогоднюю ночь может произойти все, что угодно, — даже самое невероятное. Например, любимая девушка забудет о звездной карьере и вернется к своему молодому человеку. Или вдруг придет SMS-приглашение на праздник — причем с незнакомого номера, в квартиру совершенно незнакомых людей…
Источник/Качество: SATRip | Сэмпл
Формат: AVI
Видео кодек: XviD
Аудио кодек: MP3
Видео: 704x384 (1.83:1), 25 fps, XviD build 50, 1619 kbps avg, 0.24 bit/pixel
Аудио: 48 kHz, MPEG Layer 3, 2 ch, 128.00 kbps avg
General
Complete name : E:\Novogodnjaja.smska.avi
Format : AVI
Format/Info : Audio Video Interleave
File size : 1.37 GiB
Duration : 1h 51mn
Overall bit rate : 1 758 Kbps
Writing application : MEncoder UNKNOWN-4.2.4
Writing library : VirtualDub-MPEG2 build 24586/release
Video
ID : 0
Format : MPEG-4 Visual
Format profile : [email protected]
Format settings, BVOP : No
Format settings, QPel : No
Format settings, GMC : No warppoints
Format settings, Matrix : Default (H.263)
Codec ID : XVID
Codec ID/Hint : XviD
Duration : 1h 51mn
Bit rate : 1 620 Kbps
Width : 704 pixels
Height : 384 pixels
Display aspect ratio : 16:9
Frame rate : 25.000 fps
Resolution : 24 bits
Colorimetry : 4:2:0
Scan type : Progressive
Bits/(Pixel*Frame) : 0.240
Stream size : 1.26 GiB (92%)
Writing library : XviD 1.2.1 (UTC 2008-12-04)
Audio
ID : 1
Format : MPEG Audio
Format version : Version 1
Format profile : Layer 3
Format_Settings_Mode : Joint stereo / MS Stereo
Codec ID : 55
Codec ID/Hint : MP3
Duration : 1h 51mn
Bit rate mode : Constant
Bit rate : 128 Kbps
Channel(s) : 2 channels
Sampling rate : 48.0 KHz
Resolution : 16 bits
Video delay : 16ms
Stream size : 102 MiB (7%)
Alignment : Split accross interleaves
Interleave, duration : 40 ms (1.00 video frame)
Interleave, preload duration : 500 ms


Download / Скачать

Хотите скачать бесплатно? Зарегистрируйтесь на сайте (ссылка на регистрацию). Pirat.ca - самый быстрый торрент трекер в рунете!

Как скачивать  ·   Что такое торрент  ·   Рейтинг и ограничения

Пост 01-Янв-2012 10:59 (спустя 33 минуты)

Топик был перенесен из форума Наше Кино в форум Новинки (HD|DVD|BD|TV|SAT|PDTV| - Rips)

goxakrauter
 

ficus42

Корсар

Пост 13-Янв-2012 17:51 (спустя 12 дней)

[Q] 

Будем посмотреть......
[Профиль]  [ЛС] 

got70

Легенда

752

Пост 18-Янв-2012 21:18 (спустя 5 дней)

[Q] 

ББББЕЕЕЕЕЕ!!!!!!!!!

_________________
Добро непременно победит зло!Непременно...Затем поставит на колени,и зверски УБЬЁТ!
[Профиль]  [ЛС] 
Показать сообщения:    
Ответить на тему

Текущее время: Сегодня 10:00

Часовой пояс: GMT + 4



Вы не можете начинать темы
Вы не можете отвечать на сообщения
Вы не можете редактировать свои сообщения
Вы не можете удалять свои сообщения
Вы не можете голосовать в опросах
Вы не можете прикреплять файлы к сообщениям
Вы не можете скачивать файлы

▼ Вниз