ML
     
  Уважаемый Гость!
Вы можете поддержать проект и зарегистрироваться у наших партнеров - онлайн-стратегия MyLands. При регистрации в игре Вы получите код, который сможете активировать после регистрации на pirat.ca и получить 1000 дублонов.

Ваш код:
74c28610d77aaac24ba694c4128f3b9b46b04220
 
     

Перцы (Игорь Копылов) [2013 г., мелодрама, комедия, SATRip]

Ответить на тему
 
Автор
Сообщение

Пост 07-Ноя-2013 13:02

[Q] 

ara1205

-Перцы-- Производство: Россия
Год выпуска: 2013 г.
Жанр: мелодрама, комедия
Продолжительность: 01:33:10-Режиссер: Игорь Копылов-В ролях: Александр Ткачев, Денис Рожков, Татьяна Колганова, Кирилл Полухин, Сергей Кошонин, Ольга Кирсанова, Алексей Федотов, Роман Агеев, Мария Антонова, Филипп Жлоба-Описание: Максим Савельев, выпускник 11-го класса, эгоцентричный и разбалованный сын олигарха, получает в подарок телевизионную передачу (уж очень хотелось маме прославить свое чадо). Но на первой же съемке Максим узнает, что участие в передаче не сможет его прославить, а наоборот это «шоу» опозорит его в глазах друзей. Дело в том, что передача посвящена празднику выпускников Алые Паруса, и главными героями там будут выпускники из разных социальных слоев (Егор инвалид в коляске, Николай сын военного с приступами страха и Аня воспитанная в чрезмерно строгих религиозных правилах), а кульминационным событием передачи станет проплыв на корабле по Неве…
Максим устраивает сцену родителям за «такой ценный» подарок. Этот скандал становится последней каплей в отношениях с отцом. Валерий Викторович Савельев добился своего богатства собственным трудом и ему давно не нравились закидоны сына. Он ставит своему отпрыску ультиматум — или участие в передачи или уход в армию. Максим не хочет служить и на следующий день он приходит на съёмки, но… тут начинается целая цепь событий которая ставит выход передачи под угрозу и Максим бросается спасать ненавистное ему шоу…- -Качество видео: SATRip
Контейнер: AVI
Видео кодек: XviD
Аудио кодек: MP3
Видео: 720x400, 25 fps, 1964 kbps avg, 0.273 bit/pixel
Аудио: 48 kHz, MP3, 2 ch, ~128 kbps
Cубтитры: отсутствуют-
Общее
Полное имя : C:\Users\Ромик\Pictures\Перцы\Percy.2013.O.SATRip.1400Mb.avi
Формат : AVI
Формат/Информация : Audio Video Interleave
Размер файла : 1,37 Гбайт
Продолжительность : 1 ч. 33 м.
Общий поток : 2102 Кбит/сек
Программа кодирования : VirtualDubMod 1.5.10.3 | www.virtualdub-fr.org || (build 2550/release)
Библиотека кодирования : VirtualDubMod build 2550/release
Видео
Идентификатор : 0
Формат : MPEG-4 Visual
Профиль формата : Advanced [email protected]
Параметр BVOP формата : 2
Параметр QPel формата : Нет
Параметр GMC формата : Без точки перехода
Параметр матрицы формата : Default (H.263)
Идентификатор кодека : XVID
Идентификатор кодека/Подсказка : XviD
Продолжительность : 1 ч. 33 м.
Битрейт : 1964 Кбит/сек
Ширина : 720 пикселей
Высота : 400 пикселей
Соотношение сторон : 16:9
Частота кадров : 25,000 кадров/сек
Цветовое пространство : YUV
Субдискретизация насыщенности : 4:2:0
Битовая глубина : 8 бит
Тип развёртки : Прогрессивная
Метод сжатия : С потерями
Бит/(Пиксели*Кадры) : 0.273
Размер потока : 1,28 Гбайт (93%)
Библиотека кодирования : XviD 63
Аудио
Идентификатор : 1
Формат : MPEG Audio
Версия формата : Version 1
Профиль формата : Layer 3
Режим : Joint stereo
Расширение режима : MS Stereo
Идентификатор кодека : 55
Идентификатор кодека/Подсказка : MP3
Продолжительность : 1 ч. 33 м.
Вид битрейта : Постоянный
Битрейт : 128 Кбит/сек
Каналы : 2 канала
Частота : 48,0 КГц
Метод сжатия : С потерями
Размер потока : 85,3 Мбайт (6%)
Выравнивание : Соединение по промежуткам
Продолжительность промежутка : 40 мс. (1,00 видеокадр)
Время предзагрузки промежутка : 504 мс.
Библиотека кодирования : LAME3.98r
Настройки программы : -m j -V 4 -q 2 -lowpass 17 -b 128
-
-
-
Download / Скачать

Хотите скачать бесплатно? Зарегистрируйтесь на сайте (ссылка на регистрацию). Pirat.ca - самый быстрый торрент трекер в рунете!

Как скачивать  ·   Что такое торрент  ·   Рейтинг и ограничения

scobeleff

Штурман

Пост 07-Ноя-2013 19:21 (спустя 6 часов)

[Q] 

Спасибо, конечно за труды. Но сам фильм шлак полнейший, просмотр на перемотке с шагом в двадцать минут.
[Профиль]  [ЛС] 

Selim

Корсар

Пост 07-Ноя-2013 20:11 (спустя 50 минут)

[Q] 

Шлак. И оттиск TV 1000
[Профиль]  [ЛС] 
Показать сообщения:    
Ответить на тему

Текущее время: Сегодня 09:57

Часовой пояс: GMT + 4



Вы не можете начинать темы
Вы не можете отвечать на сообщения
Вы не можете редактировать свои сообщения
Вы не можете удалять свои сообщения
Вы не можете голосовать в опросах
Вы не можете прикреплять файлы к сообщениям
Вы не можете скачивать файлы

▼ Вниз