ML
     
  Уважаемый Гость!
Вы можете поддержать проект и зарегистрироваться у наших партнеров - онлайн-стратегия MyLands. При регистрации в игре Вы получите код, который сможете активировать после регистрации на pirat.ca и получить 1000 дублонов.

Ваш код:
59354507ba913a0948d1a8f2e30f2e04c4cd7b9b
 
     

На крючке! (Наталья Углицких) [2011 г., мелодрама, комедия, BDRip]

Ответить на тему
 
Автор
Сообщение

Пост 01-Янв-2012 19:24

[Q] 

zyyx

--На крючке!
«Сорваться не получится»
-- Год выпуска: 2011
Мировая премьера: 3 февраля 2011
Российская премьера: 3 февраля 2011, «Наше Кино»
Дата выхода DVD: 24 февраля 2011, «Новый Диск»
Дата выхода Blu-Ray: 17 марта 2011, «Новый Диск»
Производство: Россия
Жанр: мелодрама, комедия
Продолжительность: 01:30:03
Перевод: Не требуется [Лицензия]
Режиссер: Наталья Углицких
В ролях: Екатерина Вилкова, Константин Крюков, Марат Башаров, Максим Матвеев, Алексей Макаров, Валерий Николаев, Светлана Антонова, Игорь Угольников, Виктор Вержбицкий, Андрей Руденский
Описание: Тренер детской школы по фигурному катанию Рита обижена неверным возлюбленным. Тот оставил ее, чтобы жениться на сестре некоего Власова, занимающего 13-е место в списке самых богатых людей страны.
Дабы отомстить несостоявшемуся жениху, Рита решает влюбить в себя этого самого Власова. Есть только одна «небольшая» проблема: никто не знает, как выглядит загадочный Власов; известно только, что он увлекается дайвингом, и проводит время инкогнито в Таиланде.
В поисках Власова Рите помогает журналист Костя, — вместе с ним она и отправляется на далекий остров Тао…
Источник/Качество: BDRip | Сэмпл
Формат: AVI
Видео кодек: XviD
Аудио кодек: AC3
Видео: 720x384 (1.88:1), 23.976 fps, XviD build 63, 1916 kbps avg, 0.29 bit/pixel
Аудио: 48 kHz, AC3 Dolby Digital, 3/2 (L,C,R,l,r) + LFE ch, 384 kbps
General
Complete name : E:\На крючке!.avi
Format : AVI
Format/Info : Audio Video Interleave
File size : 1.45 GiB
Duration : 1h 30mn
Overall bit rate : 2 310 Kbps
Writing application : VirtualDubModRus 1.5.10.2 (build 2542/release)
Video
ID : 0
Format : MPEG-4 Visual
Format profile : [email protected]
Format settings, BVOP : Yes
Format settings, QPel : No
Format settings, GMC : No warppoints
Format settings, Matrix : Custom
Codec ID : XVID
Codec ID/Hint : XviD
Duration : 1h 30mn
Bit rate : 1 917 Kbps
Width : 720 pixels
Height : 384 pixels
Display aspect ratio : 1.875
Frame rate : 23.976 fps
Resolution : 24 bits
Colorimetry : 4:2:0
Scan type : Progressive
Bits/(Pixel*Frame) : 0.289
Stream size : 1.21 GiB (83%)
Writing library : XviD 63
Audio
ID : 1
Format : AC-3
Format/Info : Audio Coding 3
Codec ID : 2000
Duration : 1h 30mn
Bit rate mode : Constant
Bit rate : 384 Kbps
Channel(s) : 6 channels
Channel positions : Front: L C R, Surround: L R, LFE
Sampling rate : 48.0 KHz
Stream size : 247 MiB (17%)
Alignment : Split accross interleaves
Interleave, duration : 42 ms (1.00 video frame)
Interleave, preload duration : 500 ms




Download / Скачать

Хотите скачать бесплатно? Зарегистрируйтесь на сайте (ссылка на регистрацию). Pirat.ca - самый быстрый торрент трекер в рунете!

Как скачивать  ·   Что такое торрент  ·   Рейтинг и ограничения

Пост 02-Янв-2012 09:08 (спустя 13 часов)

Топик был перенесен из форума Наше Кино в форум Российские фильмы

Skinwalker
 

KOS1612

Корсар

Пост 23-Янв-2012 09:44 (спустя 21 день)

[Q] 

Спасибо посмотрим
[Профиль]  [ЛС] 

anonymoys

Гроза морей

901

Пост 31-Янв-2012 08:07 (спустя 7 дней)

[Q] 

Спасибо посмотрим
[Профиль]  [ЛС] 

elena.vorobyeva

Морской Волк

Пост 04-Фев-2012 20:16 (спустя 4 дня)

[Q] 

ДураЦкая легкая, веселая кинца! Крюков-молодец! Мне понравилось
[Профиль]  [ЛС] 

lis777

Корсар

Пост 05-Фев-2012 00:12 (спустя 3 часа)

[Q] 

[Профиль]  [ЛС] 

Фисташка

Пост 15-Авг-2012 12:07 (спустя 6 месяцев 10 дней)

[Q] 

.
[Профиль]  [ЛС] 

Bile

4188

Пост 03-Фев-2013 21:58 (спустя 5 месяцев 19 дней)

[Q] 

Не очень..
[Профиль]  [ЛС] 

Sergi4

Гроза морей

Пост 18-Фев-2013 13:58 (спустя 14 дней)

[Q] 

[Профиль]  [ЛС] 

khvorovs

Шкипер

13

Пост 07-Мар-2013 17:50 (спустя 17 дней)

[Q] 

[Профиль]  [ЛС] 
Показать сообщения:    
Ответить на тему

Текущее время: Сегодня 16:12

Часовой пояс: GMT + 4



Вы не можете начинать темы
Вы не можете отвечать на сообщения
Вы не можете редактировать свои сообщения
Вы не можете удалять свои сообщения
Вы не можете голосовать в опросах
Вы не можете прикреплять файлы к сообщениям
Вы не можете скачивать файлы

▼ Вниз