ML
     
  Уважаемый Гость!
Вы можете поддержать проект и зарегистрироваться у наших партнеров - онлайн-стратегия MyLands. При регистрации в игре Вы получите код, который сможете активировать после регистрации на pirat.ca и получить 1000 дублонов.

Ваш код:
2a3da67fd641d69eeebb7cb965232435a70eaa24
 
     

Привычка расставаться (Екатерина Телегина) [2013 г., комедия, мелодрама, DVDRip][Лицензия]

Ответить на тему
 
Автор
Сообщение

Пост 12-Ноя-2013 15:00

[Q] 

aleksey99

-Привычка расставаться--«Как найти свою любовь?»- Производство: Россия
Режиссер: Екатерина Телегина
Жанр: комедия, мелодрама
Год выпуска: 2013 г.
Продолжительность: 01:19:26-Мировая премьера: 26 сентября 2013
Российская премьера: 26 сентября 2013, «Bazelevs Distribution»
Дата выхода DVD: 24 октября 2013, «CD Land»-В ролях: Алёна Константинова, Данила Козловский, Елизавета Боярская, Полина Филоненко, Александра Тюфтей, Александр Петров, Алексей Филимонов, Петр Рыков, Карло Лаванья, Пётр Фёдоров, Артур Смольянинов, Родион Галюченко, Вера Строкова, Никита Дюбанов, Александр Вдовин, Мария Ивакова...-Описание: История о девушке, которая не может устроить свою личную жизнь. В поисках ответа, почему все ее отношения не сложились, она решает встретиться со всеми своими бывшими и спросить у них, что они думают по этому поводу. Найдет ли она ответ на свой вопрос? Нет. Найдет ли она свою любовь? Конечно, да!- -Трейлер-Качество видео: DVDRip
Контейнер: AVI
Видео кодек: XviD
Аудио кодек: AC3
Видео: 720x400 (1.80:1), 25 fps, XviD build 50 ~2166 kbps avg, 0.30 bit/pixel
Аудио: 48 kHz, AC3 Dolby Digital, 3/2 (L,C,R,l,r) + LFE ch, ~448 kbps
Cубтитры: Отсутствуют
Общее
Полное имя : H:\Torrent2\Privychka.Rasstavat'sya.2013.DVDRip_[pirat.ca].avi
Формат : AVI
Формат/Информация : Audio Video Interleave
Размер файла : 1,46 Гбайт
Продолжительность : 1 ч. 19 м.
Общий поток : 2625 Кбит/сек
Программа кодирования : VirtualDubMod 1.5.10.3 | www.virtualdub-fr.org || (build 2550/release)
Библиотека кодирования : VirtualDubMod build 2550/release
Видео
Идентификатор : 0
Формат : MPEG-4 Visual
Профиль формата : Advanced [email protected]
Параметр BVOP формата : 2
Параметр QPel формата : Нет
Параметр GMC формата : Без точки перехода
Параметр матрицы формата : Default (H.263)
Идентификатор кодека : XVID
Идентификатор кодека/Подсказка : XviD
Продолжительность : 1 ч. 19 м.
Битрейт : 2167 Кбит/сек
Ширина : 720 пикселей
Высота : 400 пикселей
Соотношение сторон : 16:9
Частота кадров : 25,000 кадров/сек
Цветовое пространство : YUV
Субдискретизация насыщенности : 4:2:0
Битовая глубина : 8 бит
Тип развёртки : Прогрессивная
Метод сжатия : С потерями
Бит/(Пиксели*Кадры) : 0.301
Размер потока : 1,20 Гбайт (83%)
Библиотека кодирования : XviD 1.2.1 (UTC 2008-12-04)
Аудио
Идентификатор : 1
Формат : AC-3
Формат/Информация : Audio Coding 3
Расширение режима : CM (complete main)
Параметр Endianness формата : Big
Идентификатор кодека : 2000
Продолжительность : 1 ч. 19 м.
Вид битрейта : Постоянный
Битрейт : 448 Кбит/сек
Каналы : 6 каналов
Расположение каналов : Front: L C R, Side: L R, LFE
Частота : 48,0 КГц
Битовая глубина : 16 бит
Метод сжатия : С потерями
Размер потока : 255 Мбайт (17%)
Выравнивание : Разделение по промежуткам
Продолжительность промежутка : 40 мс. (1,00 видеокадр)
Время предзагрузки промежутка : 500 мс.
Download / Скачать

Хотите скачать бесплатно? Зарегистрируйтесь на сайте (ссылка на регистрацию). Pirat.ca - самый быстрый торрент трекер в рунете!

Как скачивать  ·   Что такое торрент  ·   Рейтинг и ограничения

Пост 12-Ноя-2013 21:48 (спустя 6 часов)

Топик был перенесен из форума Наше кино (Трюм) в форум Новинки (HD|DVD|BD| TV|SAT|PDTV| - Rips)
kugesan
 

kudrjavy

Флибустьер

Пост 12-Ноя-2013 23:01 (спустя 8 часов)

[Q] 

Первый!))Спасибо за труды!)) Спасибо!!!

_________________
Девушки-как печеньки: ломаются,пока не намокнут...
[Профиль]  [ЛС] 

zlobny

Штурман

Пост 12-Ноя-2013 23:12 (спустя 10 минут)

[Q] 

очень нудный фильм.
[Профиль]  [ЛС] 

Bobrizha

Морской Волк

Пост 17-Ноя-2013 23:14 (спустя 5 дней)

[Q] 

Глянем. посмотрим что наши опять наснимали.
[Профиль]  [ЛС] 

metabuzz

Лоцман

Пост 18-Ноя-2013 06:03 (спустя 6 часов)

[Q] 

как что наснимали? говно.
[Профиль]  [ЛС] 

gremlion

Морской Волк

Пост 31-Мар-2014 22:18 (спустя 4 месяца 13 дней)

[Q] 

решил что тут будет быстрее чем по телика, да еще и без рекламы Автору респект!!!
[Профиль]  [ЛС] 

anton78

Морской Волк

Пост 03-Дек-2014 22:51 (спустя 8 месяцев 3 дня)

[Q] 

А я качну. Нравится, что Наши снимают!!!
[Профиль]  [ЛС] 

Scorpion7474

Флибустьер

Пост 09-Дек-2014 20:30 (спустя 5 дней)

[Q] 

Лови бочку
[Профиль]  [ЛС] 
Показать сообщения:    
Ответить на тему

Текущее время: Сегодня 01:17

Часовой пояс: GMT + 4



Вы не можете начинать темы
Вы не можете отвечать на сообщения
Вы не можете редактировать свои сообщения
Вы не можете удалять свои сообщения
Вы не можете голосовать в опросах
Вы не можете прикреплять файлы к сообщениям
Вы не можете скачивать файлы

▼ Вниз