ML
     
  Уважаемый Гость!
Вы можете поддержать проект и зарегистрироваться у наших партнеров - онлайн-стратегия MyLands. При регистрации в игре Вы получите код, который сможете активировать после регистрации на pirat.ca и получить 1000 дублонов.

Ваш код:
74c28610d77aaac24ba694c4128f3b9b46b04220
 
     

Майор (Юрий Быков) [2013 г., драма, криминал, DVDRip][Лицензия]

Ответить на тему
 
Автор
Сообщение

Пост 16-Ноя-2013 16:28

[Q] 

aleksey99

-Майор--«Майор - просто человек»- Производство: Россия, ТПО "Рок"
Режиссер: Юрий Быков
Жанр: драма, криминал
Год выпуска: 2013 г.
Продолжительность: 01:35:22-Мировая премьера: 28 июня 2013
Российская премьера: 8 августа 2013, «Bazelevs Distribution»
Релиз на DVD: 4 ноября 2013 «Новый Диск»-В ролях: Денис Шведов, Ирина Низина, Илья Исаев, Юрий Быков, Дмитрий Куличков, Борис Невзоров, Кирилл Полухин, Иван Руденко, Егор Губарев, Николай Зазуля, Владимир Любовский-Описание: В день долгожданных родов своей жены майор полиции Сергей Соболев мчится в роддом вне себя от счастья. На скользкой зимней дороге он насмерть сбивает семилетнего мальчика на глазах у несчастной матери. Превышение скорости, неосторожность и пешеходный переход — доказательства очевидны, как и нежелание молодого отца угодить за решетку. Майор использует свое служебное положение, чтобы оправдать себя… Сам того не желая, он запускает целую череду смертей, остановить которую решится слишком поздно.- -Качество видео: DVDRip
Контейнер: AVI
Видео кодек: XviD
Аудио кодек: AC3
Видео: 720x304 (2.37:1), 25 fps, XviD build 50 ~1733 kbps avg, 0.32 bit/pixel
Аудио: 48 kHz, AC3 Dolby Digital, 3/2 (L,C,R,l,r) + LFE ch, ~448 kbps
Cубтитры: отсутствуют
Общее
Полное имя : H:\Torrent2\Major.2013.O.DVDRip.1.46Gb_[pirat.ca].avi
Формат : AVI
Формат/Информация : Audio Video Interleave
Размер файла : 1,46 Гбайт
Продолжительность : 1 ч. 35 м.
Общий поток : 2192 Кбит/сек
Программа кодирования : VirtualDubMod 1.5.10.3 | www.virtualdub-fr.org || (build 2550/release)
Библиотека кодирования : VirtualDubMod build 2550/release
Видео
Идентификатор : 0
Формат : MPEG-4 Visual
Профиль формата : Advanced [email protected]
Параметр BVOP формата : 2
Параметр QPel формата : Нет
Параметр GMC формата : Без точки перехода
Параметр матрицы формата : Default (MPEG)
Идентификатор кодека : XVID
Идентификатор кодека/Подсказка : XviD
Продолжительность : 1 ч. 35 м.
Битрейт : 1734 Кбит/сек
Ширина : 720 пикселей
Высота : 304 пикселя
Соотношение сторон : 2,35:1
Частота кадров : 25,000 кадров/сек
Цветовое пространство : YUV
Субдискретизация насыщенности : 4:2:0
Битовая глубина : 8 бит
Тип развёртки : Прогрессивная
Метод сжатия : С потерями
Бит/(Пиксели*Кадры) : 0.317
Размер потока : 1,16 Гбайт (79%)
Библиотека кодирования : XviD 1.2.1 (UTC 2008-12-04)
Аудио
Идентификатор : 1
Формат : AC-3
Формат/Информация : Audio Coding 3
Расширение режима : CM (complete main)
Параметр Endianness формата : Big
Идентификатор кодека : 2000
Продолжительность : 1 ч. 35 м.
Вид битрейта : Постоянный
Битрейт : 448 Кбит/сек
Каналы : 6 каналов
Расположение каналов : Front: L C R, Side: L R, LFE
Частота : 48,0 КГц
Битовая глубина : 16 бит
Метод сжатия : С потерями
Размер потока : 306 Мбайт (20%)
Выравнивание : Разделение по промежуткам
Продолжительность промежутка : 40 мс. (1,00 видеокадр)
Время предзагрузки промежутка : 500 мс.
Трейлер
Download / Скачать

Хотите скачать бесплатно? Зарегистрируйтесь на сайте (ссылка на регистрацию). Pirat.ca - самый быстрый торрент трекер в рунете!

Как скачивать  ·   Что такое торрент  ·   Рейтинг и ограничения

Serjio73

Лоцман

Пост 16-Ноя-2013 17:01 (спустя 33 минуты)

[Q] 

спасибо, глянем.
[Профиль]  [ЛС] 

Пост 16-Ноя-2013 19:23 (спустя 2 часа 22 минуты)

Топик был перенесен из форума Наше кино (Трюм) в форум Новинки (HD|DVD|BD| TV|SAT|PDTV| - Rips)
ara1205
 

kudrjavy

Флибустьер

Пост 17-Ноя-2013 21:03 (спустя 1 день 4 часа)

[Q] 

Спасибо,посмотрим)))) Спасибо!!!

_________________
Девушки-как печеньки: ломаются,пока не намокнут...
[Профиль]  [ЛС] 

Барсик

Морской Волк

11

Пост 17-Ноя-2013 21:26 (спустя 22 минуты)

[Q] 

майор майор оконцовка не понравилась . метался как говно в проруби то туда то сюда Лови бочку На любителя
[Профиль]  [ЛС] 

_Marks_

Флибустьер

Пост 18-Ноя-2013 16:27 (спустя 19 часов)

[Q] 

хорошая драма!!! всем мусорам гореть в аду "без исключения"!
[Профиль]  [ЛС] 

Jey1980

Морской Волк

Пост 18-Ноя-2013 18:09 (спустя 1 час 41 минута)

[Q] 

Судя по описанному сюжету - мутноватый фильм... Гляну под настроение..
Раздающему - спасибо, в любом случае!
[Профиль]  [ЛС] 

tango07

Корсар

Пост 19-Ноя-2013 12:42 (спустя 18 часов)

[Q] 

Раздающему - спасибо!
[Профиль]  [ЛС] 

vodafoner

Лоцман

Пост 19-Ноя-2013 21:31 (спустя 8 часов)

[Q] 

Описание, заряжает на просмотр. Но учитывая любимого РФ производителя. Может оказаться фильмом типа ГРУЗ 200. заценим
[Профиль]  [ЛС] 

co6aka 6e3 yxa

Морской Волк

Пост 19-Ноя-2013 21:43 (спустя 12 минут)

[Q] 

нормальное такое кино

_________________
А незнакомок мы целуем робко
[Профиль]  [ЛС] 

vodafoner

Лоцман

Пост 20-Ноя-2013 00:04 (спустя 2 часа 20 минут)

[Q] 

450919хорошая драма!!! всем мусорам гореть в аду "без исключения"!
не гони фильм не про ЭТО. Мусора мусорами - башку свою дома не надо забывать.
Фильмец правильный - смотреть нужно!
[Профиль]  [ЛС] 

UA4HQW

Флибустьер

2528

Пост 24-Ноя-2013 08:30 (спустя 4 дня)

[Q] 

Посмотрел с удовольствием.
Автору респект!!!
[Профиль]  [ЛС] 

gis

Корсар

Пост 29-Ноя-2013 21:46 (спустя 5 дней)

[Q] 

Тяжёлый фильм +
[Профиль]  [ЛС] 

Eisen123

Шкипер

5

Пост 30-Ноя-2013 05:39 (спустя 7 часов)

[Q] 

Даже не знаю что написать... 3,5 из 5 вот и все в принципе. Мутная, тяжелая история с мрачным-мрачным "хэппи эндом"
[Профиль]  [ЛС] 

mayer550

Лоцман

Пост 02-Дек-2013 16:19 (спустя 2 дня 10 часов)

[Q] 

Фильм нормальный, полностью отражает реалии поведения власти в глубокой провинции. Есть над чем подумать. Пиратка рулит!
[Профиль]  [ЛС] 

anton78

Морской Волк

Пост 03-Дек-2013 23:57 (спустя 1 день 7 часов)

[Q] 

Мусорам гореть.....Поддерживаю. Фильм посмотрю!!
[Профиль]  [ЛС] 

Loso

Лоцман

Пост 04-Дек-2013 00:52 (спустя 54 минуты)

[Q] 

Отличный фильм! Автору респект!!!
[Профиль]  [ЛС] 

Euripus

Лоцман

Пост 06-Дек-2013 18:08 (спустя 2 дня 17 часов)

[Q] 

Фильм тяжелый, уж слишком близок к реальности, и интересный Спасибо!!!
[Профиль]  [ЛС] 

rulin

Лоцман

Пост 08-Дек-2013 08:47 (спустя 1 день 14 часов)

[Q] 

Отличный фильм!
Спасибо!!!
Всем качать!!!
[Профиль]  [ЛС] 

maulik

Шкипер

Пост 12-Дек-2013 12:13 (спустя 4 дня)

[Q] 

Фильм понравился, смотрелся на одном дыхание.
Автору респект!!!
[Профиль]  [ЛС] 

alex denver71

Флибустьер

Пост 30-Янв-2014 18:58 (спустя 1 месяц 18 дней)

[Q] 

Автору респект!!! согласен фильм тяжелый. aa
[Профиль]  [ЛС] 

Vintorezov REG 39

Легенда

176

Пост 01-Сен-2014 14:10 (спустя 7 месяцев 1 день)

[Q] 

Отличное кино Спасибо!!!
[Профиль]  [ЛС] 

tyuwa28

Шкипер

Пост 24-Ноя-2015 12:30 (спустя 1 год 2 месяца)

[Q] 

Встаньте кто-нибудь на раздачу ПЛИИИИЗ !!!!!!!!!!!!!!!!
[Профиль]  [ЛС] 

polyk

Флибустьер

Пост 22-Янв-2016 23:29 (спустя 1 месяц 28 дней)

[Q] 

норм кино, впечатлительным не смотреть
[Профиль]  [ЛС] 

syamvlad

Шкипер

Пост 27-Фев-2016 16:33 (спустя 1 месяц 4 дня)

[Q] 

норм кино, впечатлительным не смотреть
Не знаю, впечатлительный я или нет, но посмотрю. )))
[Профиль]  [ЛС] 
Показать сообщения:    
Ответить на тему

Текущее время: Сегодня 09:56

Часовой пояс: GMT + 4



Вы не можете начинать темы
Вы не можете отвечать на сообщения
Вы не можете редактировать свои сообщения
Вы не можете удалять свои сообщения
Вы не можете голосовать в опросах
Вы не можете прикреплять файлы к сообщениям
Вы не можете скачивать файлы

▼ Вниз