ML
     
  Уважаемый Гость!
Вы можете поддержать проект и зарегистрироваться у наших партнеров - онлайн-стратегия MyLands. При регистрации в игре Вы получите код, который сможете активировать после регистрации на pirat.ca и получить 1000 дублонов.

Ваш код:
062e2babcc491faeb40d496cf9a498ac3df6cdd0
 
     

Курортный туман (Арман Геворгян) [2012 г., детектив, триллер, DVDRip][Лицензия]

Ответить на тему
 
Автор
Сообщение

Пост 16-Ноя-2013 18:31

[Q] 

aleksey99

-Курортный туман- Производство: Россия / BERG SOUND
Режиссер: Арман Геворгян
Жанр: детектив, триллер
Год выпуска: 2012 г.
Продолжительность: 01:32:32-Релиз на DVD: 5 сентября 2013, «Мистерия Звука»-В ролях: Алена Бабенко, Эльдар Лебедев, Александр Рапопорт, Ирина Чериченко, Алена Стебунова, Юрий Кормушин, Сергей Астахов, Виктория Рунцова-Описание: В курортном городе происходит странное и загадочное убийство олигарха Владимира Серого. Криминальная полиция начинает расследование, в которое вовлечены люди из близкого окружения жертвы. Во время расследования происходят не менее загадочные убийства лиц так или иначе причастных к этому делу.
Молодая красивая женщина Александра Богачева на правах частного юриста олигарха Серого помогает следователям разобраться во всех хитросплетениях семейных и внесемейных отношений убитого. В этом деле она сотрудничает с молодым лейтенантом Костей, сотрудником местной полиции.
В ходе расследования выясняется, что причины убийства кроются в далекой молодости жертвы.- -Качество видео: DVDRip
Контейнер: AVI
Видео кодек: XviD
Аудио кодек: AC3
Видео: 720x400 (1.80:1), 25 fps, XviD build 50 ~2054 kbps avg, 0.28 bit/pixel
Аудио: 48 kHz, AC3 Dolby Digital, 2/0 (L,R) ch, ~192 kbps
Cубтитры: отсутствуют
Общее
Полное имя : H:\Torrent2\Kyrortnyj.tyman.2012.O.DVDRip.1.46Gb_[pirat.ca].avi
Формат : AVI
Формат/Информация : Audio Video Interleave
Размер файла : 1,46 Гбайт
Продолжительность : 1 ч. 32 м.
Общий поток : 2256 Кбит/сек
Программа кодирования : VirtualDubMod 1.5.10.2 (build 2540/release)
Библиотека кодирования : VirtualDubMod build 2540/release
Видео
Идентификатор : 0
Формат : MPEG-4 Visual
Профиль формата : Advanced [email protected]
Параметр BVOP формата : 2
Параметр QPel формата : Нет
Параметр GMC формата : Без точки перехода
Параметр матрицы формата : Default (MPEG)
Идентификатор кодека : XVID
Идентификатор кодека/Подсказка : XviD
Продолжительность : 1 ч. 32 м.
Битрейт : 2055 Кбит/сек
Ширина : 720 пикселей
Высота : 400 пикселей
Соотношение сторон : 16:9
Частота кадров : 25,000 кадров/сек
Цветовое пространство : YUV
Субдискретизация насыщенности : 4:2:0
Битовая глубина : 8 бит
Тип развёртки : Прогрессивная
Метод сжатия : С потерями
Бит/(Пиксели*Кадры) : 0.285
Размер потока : 1,33 Гбайт (91%)
Библиотека кодирования : XviD 1.2.1 (UTC 2008-12-04)
Аудио
Идентификатор : 1
Формат : AC-3
Формат/Информация : Audio Coding 3
Расширение режима : CM (complete main)
Параметр Endianness формата : Big
Идентификатор кодека : 2000
Продолжительность : 1 ч. 32 м.
Вид битрейта : Постоянный
Битрейт : 192 Кбит/сек
Каналы : 2 канала
Расположение каналов : Front: L R
Частота : 48,0 КГц
Битовая глубина : 16 бит
Метод сжатия : С потерями
Размер потока : 127 Мбайт (9%)
Выравнивание : Разделение по промежуткам
Продолжительность промежутка : 40 мс. (1,00 видеокадр)
Время предзагрузки промежутка : 500 мс.
Download / Скачать

Хотите скачать бесплатно? Зарегистрируйтесь на сайте (ссылка на регистрацию). Pirat.ca - самый быстрый торрент трекер в рунете!

Как скачивать  ·   Что такое торрент  ·   Рейтинг и ограничения

Пост 16-Ноя-2013 19:25 (спустя 54 минуты)

Топик был перенесен из форума Наше кино (Трюм) в форум Новинки (HD|DVD|BD| TV|SAT|PDTV| - Rips)
ara1205
 

viktor41

Шкипер

Пост 16-Ноя-2013 19:37 (спустя 1 час 6 минут)

[Q] 

aleksey99, Спасибо ! Автору респект!!! Всем качать!!!
[Профиль]  [ЛС] 

SGSoft

Флибустьер

Пост 16-Ноя-2013 21:07 (спустя 1 час 29 минут)

[Q] 

Спасибо за труд. Однозначно. качество фильма не очень, да?
[Профиль]  [ЛС] 

_Marks_

Флибустьер

Пост 16-Ноя-2013 21:46 (спустя 39 минут)

[Q] 

сериалоподобная,чмошная херня!!! актёрам вообще-срам.......
[Профиль]  [ЛС] 

Дмитров

Морской Волк

Пост 14-Дек-2013 18:30 (спустя 27 дней)

[Q] 

Фильм можно посмотреть один раз. Для любителей отечественных сериалов про ментов на ТВ.
[Профиль]  [ЛС] 

Selim

Корсар

Пост 15-Дек-2013 14:06 (спустя 19 часов)

[Q] 

Сколько можно снимать УГ.
[Профиль]  [ЛС] 
Показать сообщения:    
Ответить на тему

Текущее время: Сегодня 17:44

Часовой пояс: GMT + 4



Вы не можете начинать темы
Вы не можете отвечать на сообщения
Вы не можете редактировать свои сообщения
Вы не можете удалять свои сообщения
Вы не можете голосовать в опросах
Вы не можете прикреплять файлы к сообщениям
Вы не можете скачивать файлы

▼ Вниз