ML
     
  Уважаемый Гость!
Вы можете поддержать проект и зарегистрироваться у наших партнеров - онлайн-стратегия MyLands. При регистрации в игре Вы получите код, который сможете активировать после регистрации на pirat.ca и получить 1000 дублонов.

Ваш код:
ef8b3e8cd07bec918273586d22e5aaf18e0ae925
 
     

Кто кому кто (Евгений Шишкин) [2011 г., Комедия, SATRip]

Ответить на тему
 
Автор
Сообщение

Пост 02-Янв-2012 15:16

[Q] 

UA4HQW

Флибустьер

Кто кому кто
Год выпуска: 2011
Жанр: Комедия
Продолжительность: 01:30:06
Режиссер: Евгений Шишкин
В ролях : Елена Узлюк, Виктор Андриенко, Витория Смачелюк, Александр Гетманский, Тамара Яценко, Игорь Письменный
Описание : День рождения Милы - 31 декабря, и именно в этот день ее жених неожиданно ушел к другой. Также в этот день Мила узнала, что у нее есть брат, невеста которого - та же самая девушка. И еще в новогоднюю ночь друг детства предложил Миле руку и сердце, а его отец по странному стечению обстоятельств сделал аналогичное предложение матери Милы. Ну и, наконец, Мила встретилась со своим родным отцом, который спустя 25 лет решил познакомиться с ней и помириться с бывшей женой...
Кинопоиск
Источник/Качество: SATRip
Формат: AVI
Видео кодек: XviD
Аудио кодек: MP3
Видео: 720x400 (1.80:1), 25 fps, XviD MPEG-4 ~1976 kbps avg, 0.27 bit/pixel
Аудио: 48 kHz, MPEG Layer 3, 1 ch, ~192.00 kbps avg
Общее
Полное имя : Kto.komu.kto.2011.[pirat.ca].avi
Формат : AVI
Формат/Информация : Audio Video Interleave
Размер файла : 1,37 Гбайт
Продолжительность : 1 ч. 29 м.
Общий поток : 2175 Кбит/сек
Программа кодирования : VirtualDubMod 1.5.4.1 (build 2178/release)
Библиотека кодирования : VirtualDubMod build 2178/release
Видео
Идентификатор : 0
Формат : MPEG-4 Visual
Профиль формата : Advanced [email protected]
Параметр BVOP формата : 1
Параметр QPel формата : Нет
Параметр GMC формата : Без точки перехода
Параметр матрицы формата : Выборочная
Идентификатор кодека : XVID
Идентификатор кодека/Подсказка : XviD
Продолжительность : 1 ч. 29 м.
Битрейт : 1976 Кбит/сек
Ширина : 720 пикс.
Высота : 400 пикс.
Соотношение сторон : 16:9
Частота кадров : 25,000 кадр/сек
Цветовое пространство : YUV
Подвыборка цветности : 4:2:0
Битовая глубина : 8 бит
Тип развёртки : Прогрессивная
Метод сжатия : С потерями
Бит/(Пиксели*Кадры) : 0.274
Размер потока : 1,24 Гбайт (91%)
Библиотека кодирования : XviD 64
Аудио
Идентификатор : 1
Формат : MPEG Audio
Версия формата : Version 1
Профиль формата : Layer 3
Идентификатор кодека : 55
Идентификатор кодека/Подсказка : MP3
Продолжительность : 1 ч. 29 м.
Вид битрейта : Постоянный
Битрейт : 192 Кбит/сек
Каналы : 1 канал
Частота : 48,0 КГц
Метод сжатия : С потерями
Размер потока : 124 Мбайт (9%)
Выравнивание : Соединение по промежуткам
Продолжительность промежутка : 80 мс. (2,00 видеокадра)
Время предзагрузки промежутка : 504 ms
Библиотека кодирования : LAME3.98r
Настройки программы : -m m -V 4 -q 2 -lowpass 20.5 -b 192


Download / Скачать

Хотите скачать бесплатно? Зарегистрируйтесь на сайте (ссылка на регистрацию). Pirat.ca - самый быстрый торрент трекер в рунете!

Как скачивать  ·   Что такое торрент  ·   Рейтинг и ограничения

Пост 02-Янв-2012 17:48 (спустя 2 часа 32 минуты)

Топик был перенесен из форума Наше Кино в форум Российские фильмы

Skinwalker
 

ficus42

Корсар

Пост 13-Янв-2012 18:04 (спустя 11 дней)

[Q] 

Будем посмотреть.
[Профиль]  [ЛС] 

hohol541

Корсар

Пост 29-Дек-2012 11:08 (спустя 11 месяцев 15 дней)

[Q] 

Все люди одна большая семья.Знать-бы кто-кому приходится.
[Профиль]  [ЛС] 

Oleg Dobry

Штурман

Пост 31-Дек-2012 11:28 (спустя 2 дня)

[Q] 

смотреть можно!
[Профиль]  [ЛС] 

UncleFather

Легенда

Пост 23-Мар-2013 16:15 (спустя 2 месяца 23 дня)

[Q] 


_________________
Одни боялись Пью, другие - Билли Бонса, а меня... меня боялся сам Флинт
[Профиль]  [ЛС] 
Показать сообщения:    
Ответить на тему

Текущее время: Сегодня 18:37

Часовой пояс: GMT + 4



Вы не можете начинать темы
Вы не можете отвечать на сообщения
Вы не можете редактировать свои сообщения
Вы не можете удалять свои сообщения
Вы не можете голосовать в опросах
Вы не можете прикреплять файлы к сообщениям
Вы не можете скачивать файлы

▼ Вниз