ML
     
  Уважаемый Гость!
Вы можете поддержать проект и зарегистрироваться у наших партнеров - онлайн-стратегия MyLands. При регистрации в игре Вы получите код, который сможете активировать после регистрации на pirat.ca и получить 1000 дублонов.

Ваш код:
4855957e17f50c5c1236a0f8c4492b2b0bba00a0
 
     

Звёздный ворс (Андрей Кагадеев, Николай Копейкин) [2012 г., фантастика, комедия, DVDRip][Лицензия]

Ответить на тему
 
Автор
Сообщение

Пост 20-Ноя-2013 09:53

[Q] 

aleksey99

-Звёздный ворс--«Космическая одиссея XXIII века»- Производство: Россия, НОМфильм
Режиссер: Андрей Кагадеев, Николай Копейкин
Жанр: фантастика, комедия
Год выпуска: 2012 г.
Продолжительность: 01:56:00-Российская премьера: 28 июня 2012-В ролях: Сергей Шнуров, Александр Лаэртский, Сергей Михалок, Николай Копейкин, Андрей Кагадеев, Сергей Кагадеев, Светлана Гумановская, Татьяна Колганова, Кирилл Миллер, Иван Турист-Описание: Давным-давно в одной галактике на планете Земля жил профессор. Он работал в научном городке Иштыме, затерявшемся среди просторов сибирской тайги. Мысль о конструкции Вселенной не давала покоя профессору и была предметом его научных изысканий. И вот однажды, в 2221 году, посетило его озарение, и сделал он открытие, которое переворачивало с ног на голову все хрестоматийные представления о строении нашей Вселенной.
Но недоброжелательно встретили это открытие завистливые коллеги-ученые из мирового сообщества. Однако нашлись и люди, поверившие светлой научной мысли профессора, мало того, дали ему денег и помогли построить первый в истории мироздания межпланетный корабль нового типа для путешествий по коридорам Вселенной, чтобы смог профессор доказать верность своей теории! И вот собрался в далеком Иштыме героический экипаж корабля — конструктор-пилот, сам профессор, штурман, продюсер экспедиции с ассистентом, повар, врач и начальник службы безопасности, чтобы отправиться в полный загадок путь через хитросплетения звездного ворса, в поисках ответов на разные вопросы, и где одни обрящут Бога, а другим воздастся по заслугам…- -Качество видео: DVDRip
Контейнер: AVI
Видео кодек: XviD
Аудио кодек: AC3
Видео: 720x400 (1.80:1), 25 fps, XviD build 65 ~1489 kbps avg, 0.21 bit/pixel
Аудио: 48 kHz, AC3 Dolby Digital, 2/0 (L,R) ch, ~192 kbps
Cубтитры: отсутствуют
Общее
Полное имя : D:\Torrent 2\Zvezdny.Vors.2012.O.DVDRip.1400Mb_[pirat.ca].avi
Формат : AVI
Формат/Информация : Audio Video Interleave
Размер файла : 1,37 Гбайт
Продолжительность : 1 ч. 56 м.
Общий поток : 1691 Кбит/сек
Программа кодирования : VirtualDubMod 1.5.10.3 | www.virtualdub-fr.org || (build 2550/release)
Видео
Идентификатор : 0
Формат : MPEG-4 Visual
Профиль формата : Advanced [email protected]
Параметр BVOP формата : 2
Параметр QPel формата : Нет
Параметр GMC формата : Без точки перехода
Параметр матрицы формата : Default (H.263)
Идентификатор кодека : XVID
Идентификатор кодека/Подсказка : XviD
Продолжительность : 1 ч. 56 м.
Битрейт : 1490 Кбит/сек
Ширина : 720 пикселей
Высота : 400 пикселей
Соотношение сторон : 16:9
Частота кадров : 25,000 кадров/сек
Цветовое пространство : YUV
Субдискретизация насыщенности : 4:2:0
Битовая глубина : 8 бит
Тип развёртки : Прогрессивная
Метод сжатия : С потерями
Бит/(Пиксели*Кадры) : 0.207
Размер потока : 1,21 Гбайт (88%)
Библиотека кодирования : XviD 65
Аудио
Идентификатор : 1
Формат : AC-3
Формат/Информация : Audio Coding 3
Расширение режима : CM (complete main)
Параметр Endianness формата : Big
Идентификатор кодека : 2000
Продолжительность : 1 ч. 56 м.
Вид битрейта : Постоянный
Битрейт : 192 Кбит/сек
Каналы : 2 канала
Расположение каналов : Front: L R
Частота : 48,0 КГц
Битовая глубина : 16 бит
Метод сжатия : С потерями
Размер потока : 159 Мбайт (11%)
Выравнивание : Разделение по промежуткам
Продолжительность промежутка : 40 мс. (1,00 видеокадр)
Время предзагрузки промежутка : 500 мс.
Трейлер
Download / Скачать

Хотите скачать бесплатно? Зарегистрируйтесь на сайте (ссылка на регистрацию). Pirat.ca - самый быстрый торрент трекер в рунете!

Как скачивать  ·   Что такое торрент  ·   Рейтинг и ограничения

Пост 20-Ноя-2013 10:56 (спустя 1 час 2 минуты)

Топик был перенесен из форума Наше кино (Трюм) в форум Российские фильмы
kugesan
 

bearsky

Лоцман

Пост 27-Ноя-2013 23:23 (спустя 7 дней)

[Q] 

ИМХО слабее той же Пасеки. Очень мало Туриста и Ливера. Но некоторые сцены просто блеск.
[Профиль]  [ЛС] 
Показать сообщения:    
Ответить на тему

Текущее время: Сегодня 06:12

Часовой пояс: GMT + 4



Вы не можете начинать темы
Вы не можете отвечать на сообщения
Вы не можете редактировать свои сообщения
Вы не можете удалять свои сообщения
Вы не можете голосовать в опросах
Вы не можете прикреплять файлы к сообщениям
Вы не можете скачивать файлы

▼ Вниз