ML
     
  Уважаемый Гость!
Вы можете поддержать проект и зарегистрироваться у наших партнеров - онлайн-стратегия MyLands. При регистрации в игре Вы получите код, который сможете активировать после регистрации на pirat.ca и получить 1000 дублонов.

Ваш код:
dbd0d701284cde74a1f34d06ce20b7bc75a73e75
 
     

12 месяцев (Александр Баршак) [2013 г., комедия, DVDRip]

Ответить на тему
 
Автор
Сообщение

Пост 21-Ноя-2013 11:53

[Q] 

ara1205

-12 месяцев-- Производство: Россия
Год выпуска: 2013 г.
Жанр: комедия
Продолжительность: 01:32:36-Режиссер: Александр Баршак-В ролях: Иван Дорн, Артур Смольянинов, Екатерина Гусева, Армен Джигарханян, Александр Головин, Мария Сёмкина, Илья Ковальчук, Евгений Малкин, Максим Виторган, Александр Емельяненко-Описание: О чем может мечтать провинциальная девчонка, приехавшая покорять Москву? У главной героини фильма Маши Смирновой уже имеется список заветных желаний: грудь третьего размера, роскошная шуба, отдельная квартира, любовь и карьера звезды шоу-бизнеса. Когда в руки девушки попадает сказочная книга «12 месяцев», её мечты неожиданно начинают сбываться! Но у каждой медали есть оборотная сторона: желания Маши причиняют вред ее любимым людям. Теперь девушка должна сама бескорыстно творить «чудеса» для других, чтобы спасти своих близких и вернуть свою настоящую любовь.- -Качество видео: DVDRip
Контейнер: AVI
Видео кодек: XviD
Аудио кодек: AC3
Видео: 720x304 (2.35:1), 25.000 fps, XviD build 65 ~1987 kbps avg, 0.363 bit/pixel
Аудио: 48 kHz, AC3 Dolby Digital, 6 ch, 256 kbps avg
Cубтитры: отсутствуют-
Общее
Полное имя : C:\Users\Ромик\Pictures\Заказ\12 месяцев\Dvenadcatj.mesyacev.2013.DVDRip.avi
Формат : AVI
Формат/Информация : Audio Video Interleave
Размер файла : 1,46 Гбайт
Продолжительность : 1 ч. 32 м.
Общий поток : 2252 Кбит/сек
Программа кодирования : VirtualDubMod 1.5.10.3 | www.virtualdub-fr.org || (build 2550/release)
Библиотека кодирования : VirtualDubMod build 2550/release
Видео
Идентификатор : 0
Формат : MPEG-4 Visual
Профиль формата : Advanced [email protected]
Параметр BVOP формата : 1
Параметр QPel формата : Нет
Параметр GMC формата : Без точки перехода
Параметр матрицы формата : Выборочная
Идентификатор кодека : XVID
Идентификатор кодека/Подсказка : XviD
Продолжительность : 1 ч. 32 м.
Битрейт : 1987 Кбит/сек
Ширина : 720 пикселей
Высота : 304 пикселя
Соотношение сторон : 2,35:1
Частота кадров : 25,000 кадров/сек
Цветовое пространство : YUV
Субдискретизация насыщенности : 4:2:0
Битовая глубина : 8 бит
Тип развёртки : Прогрессивная
Метод сжатия : С потерями
Бит/(Пиксели*Кадры) : 0.363
Размер потока : 1,29 Гбайт (88%)
Библиотека кодирования : XviD 65
Аудио
Идентификатор : 1
Формат : AC-3
Формат/Информация : Audio Coding 3
Расширение режима : CM (complete main)
Параметр Endianness формата : Big
Идентификатор кодека : 2000
Продолжительность : 1 ч. 32 м.
Вид битрейта : Постоянный
Битрейт : 256 Кбит/сек
Каналы : 6 каналов
Расположение каналов : Front: L C R, Side: L R, LFE
Частота : 48,0 КГц
Битовая глубина : 16 бит
Метод сжатия : С потерями
Размер потока : 170 Мбайт (11%)
Выравнивание : Разделение по промежуткам
Продолжительность промежутка : 40 мс. (1,00 видеокадр)
Время предзагрузки промежутка : 500 мс.
-
-
Download / Скачать

Хотите скачать бесплатно? Зарегистрируйтесь на сайте (ссылка на регистрацию). Pirat.ca - самый быстрый торрент трекер в рунете!

Как скачивать  ·   Что такое торрент  ·   Рейтинг и ограничения

yulya230784

Морской Волк

927

Пост 21-Ноя-2013 17:44 (спустя 5 часов)

[Q] 

Ваня Дорн?! Надо обязательно посмотреть.
[Профиль]  [ЛС] 

infiniti-r

Корсар

Пост 22-Ноя-2013 11:44 (спустя 18 часов)

[Q] 

Спасибо!!! Порадую жену!!!
[Профиль]  [ЛС] 

Vagabond_AJIEX

Штурман

Пост 22-Ноя-2013 21:06 (спустя 9 часов)

[Q] 

Спасибо, посмотрим, что за кин :)
[Профиль]  [ЛС] 

romansl

Шкипер

Пост 23-Ноя-2013 00:17 (спустя 3 часа)

[Q] 

Смотрибельно!
Особенно концовка понравилась с майкой Аршавина! bj
[Профиль]  [ЛС] 

Vagabond_AJIEX

Штурман

Пост 23-Ноя-2013 14:02 (спустя 13 часов)

[Q] 

Какой то детский фильмец :(
[Профиль]  [ЛС] 

ara1205 ®

69733

Пост 23-Ноя-2013 14:24 (спустя 22 минуты)

[Q] 

452997Какой то детский фильмец :(
Для детского фильма, слишком много она думает о сиськах))
[Профиль]  [ЛС] 

valeryz777

Гроза морей

896

Пост 24-Ноя-2013 01:43 (спустя 11 часов)

[Q] 

Классный фильм!!! В любом возрасте МЫ - ДЕТИ, только МЫ об этом забываем! Лови бочку Пиратка рулез!!!

_________________
«Festina lente» что означает «Поспешай медленно»
[Профиль]  [ЛС] 

shalonina

Гроза морей

Пост 25-Ноя-2013 10:17 (спустя 1 день 8 часов)

[Q] 

Спасибо. Автору респект!!!

_________________
[Профиль]  [ЛС] 

kudrjavy

Флибустьер

Пост 26-Ноя-2013 13:33 (спустя 1 день 3 часа)

[Q] 

Спасиб!))посмотрим)) Супер!

_________________
Девушки-как печеньки: ломаются,пока не намокнут...
[Профиль]  [ЛС] 

Dysy

Морской Волк

Пост 11-Дек-2013 00:54 (спустя 14 дней)

[Q] 

452512Спасибо!!! Порадую жену!!!
и я тоже ag
[Профиль]  [ЛС] 

I-1vadim

Шкипер

Пост 11-Дек-2013 19:54 (спустя 18 часов)

[Q] 

не понравилось. жене особенно. недосказка какая-то....
[Профиль]  [ЛС] 

Jek@

Легенда

Пост 12-Дек-2013 11:46 (спустя 15 часов)

[Q] 

Спасибо!!! .
[Профиль]  [ЛС] 

artt5

Штурман

Пост 13-Дек-2013 11:07 (спустя 23 часа)

[Q] 

почему то качается быстрее остальных)))
[Профиль]  [ЛС] 

baak

Лоцман

Пост 14-Дек-2013 12:39 (спустя 1 день 1 час)

[Q] 

После подобных фильмов хочется кричать Господа "режиссеры" хватит снимать, скоро уже вообще российские фильмы смотреть не будут, за несколько лет ни одного приличного фильма
[Профиль]  [ЛС] 

vetalyap

Морской Волк

Пост 14-Дек-2013 23:17 (спустя 10 часов)

[Q] 

Мнения разделились как всегда!
Прийдётся смотреть...
[Профиль]  [ЛС] 

Selim

Корсар

Пост 15-Дек-2013 14:04 (спустя 14 часов)

[Q] 

Спасибо за отзывы, качать не буду.
[Профиль]  [ЛС] 

metampsy

Корсар

Пост 16-Дек-2013 15:56 (спустя 1 день 1 час)

[Q] 

Слабенький. Порадовала (единственная смешная) шутка про Аршавина.
[Профиль]  [ЛС] 

UA4HQW

Флибустьер

2528

Пост 25-Фев-2014 13:32 (спустя 2 месяца 8 дней)

[Q] 

Хороший лёкгий фильмец !
Мне понравилось Автору респект!!!
[Профиль]  [ЛС] 

Scorpion7474

Флибустьер

Пост 25-Фев-2014 17:07 (спустя 3 часа)

[Q] 

жене понравилось Мне понравилось Лови бочку
[Профиль]  [ЛС] 

Alexlogin

Гроза морей

105

Пост 25-Фев-2014 17:19 (спустя 11 минут)

[Q] 

Различные отзывы придется посмотреть)
[Профиль]  [ЛС] 

Zloy

Корсар

Пост 31-Дек-2014 08:26 (спустя 10 месяцев 5 дней)

[Q] 

С наступающим Новым 2015 годом !!! Спасибо!!! Лови бочку
[Профиль]  [ЛС] 
Показать сообщения:    
Ответить на тему

Текущее время: Сегодня 18:31

Часовой пояс: GMT + 4



Вы не можете начинать темы
Вы не можете отвечать на сообщения
Вы не можете редактировать свои сообщения
Вы не можете удалять свои сообщения
Вы не можете голосовать в опросах
Вы не можете прикреплять файлы к сообщениям
Вы не можете скачивать файлы

▼ Вниз