ML
     
  Уважаемый Гость!
Вы можете поддержать проект и зарегистрироваться у наших партнеров - онлайн-стратегия MyLands. При регистрации в игре Вы получите код, который сможете активировать после регистрации на pirat.ca и получить 1000 дублонов.

Ваш код:
ef8b3e8cd07bec918273586d22e5aaf18e0ae925
 
     

Я буду рядом (Павел Руминов) [2012 г., драма, DVDRip]

Ответить на тему
 
Автор
Сообщение

Пост 22-Ноя-2013 15:20

[Q] 

aleksey99

--Я буду рядом-- Производство: Россия
Режиссер: Павел Руминов
Жанр: драма
Год выпуска: 2012 г.
Продолжительность: 01:35:02--Мировая премьера: 16 октября 2012
Российская премьера: 6 декабря 2012, «Каропрокат»
Релиз на DVD: 18 апреля 2013, «Мистерия Звука»
Релиз на Blu-Ray: Май 2013, «Мистерия Звука»--В ролях: Мария Шалаева, Роман Зенчук, Мария Сёмкина, Иван Волков, Михаил Крылов, Елена Морозова, Лев Бураков, Андрей Голанов, Владимир Котов, Валерий Караваев, Екатерина Щеглова, Анастасия Волконских, Евгений Аксёнов, Ева Данилова, Даниил Исаков, Анастасия Захарова, Екатерина Никитина, Ксения Тропина--Описание: Инна — успешная молодая женщина с отличным чувством юмора. Она работает менеджером ресторана, по праву заслужив уважение и любовь коллег и начальства. А еще у нее есть самый важный человек на свете — 6-летний сын Митя, которого Инна воспитывает одна. На зависть окружающим, между матерью и ребенком сложились трогательные, добрые, заботливые отношения. Но неожиданно Инну настигает страшная беда — неизлечимая болезнь. Теперь главное для Инны — найти маленькому Мите новых родителей, иначе ребенок останется сиротой...-- --Качество видео: DVDRip
Контейнер: AVI
Видео кодек: XviD
Аудио кодек: AC3
Видео: 720x400 (1.80:1), 25 fps, XviD build 50 ~1736 kbps avg, 0.24 bit/pixel
Аудио: 48 kHz, AC3 Dolby Digital, 3/2 (L,C,R,l,r) + LFE ch, ~448 kbps
Cубтитры: отсутствуют
Общее
Полное имя : H:\Torrent2\Ja.budu.rjadom.2012.O.DVDRip_[pirat.ca].avi
Формат : AVI
Формат/Информация : Audio Video Interleave
Размер файла : 1,46 Гбайт
Продолжительность : 1 ч. 35 м.
Общий поток : 2194 Кбит/сек
Программа кодирования : VirtualDubMod 1.5.10.3 | www.virtualdub-fr.org || (build 2550/release)
Видео
Идентификатор : 0
Формат : MPEG-4 Visual
Профиль формата : Advanced [email protected]
Параметр BVOP формата : 1
Параметр QPel формата : Нет
Параметр GMC формата : Без точки перехода
Параметр матрицы формата : Выборочная
Идентификатор кодека : XVID
Идентификатор кодека/Подсказка : XviD
Продолжительность : 1 ч. 35 м.
Битрейт : 1737 Кбит/сек
Ширина : 720 пикселей
Высота : 400 пикселей
Соотношение сторон : 16:9
Частота кадров : 25,000 кадров/сек
Цветовое пространство : YUV
Субдискретизация насыщенности : 4:2:0
Битовая глубина : 8 бит
Тип развёртки : Прогрессивная
Метод сжатия : С потерями
Бит/(Пиксели*Кадры) : 0.241
Размер потока : 1,15 Гбайт (79%)
Библиотека кодирования : XviD 1.2.1 (UTC 2008-12-04)
Аудио
Идентификатор : 1
Формат : AC-3
Формат/Информация : Audio Coding 3
Расширение режима : CM (complete main)
Параметр Endianness формата : Big
Идентификатор кодека : 2000
Продолжительность : 1 ч. 35 м.
Вид битрейта : Постоянный
Битрейт : 448 Кбит/сек
Каналы : 6 каналов
Расположение каналов : Front: L C R, Side: L R, LFE
Частота : 48,0 КГц
Битовая глубина : 16 бит
Метод сжатия : С потерями
Размер потока : 305 Мбайт (20%)
Выравнивание : Разделение по промежуткам
Продолжительность промежутка : 40 мс. (1,00 видеокадр)
Время предзагрузки промежутка : 500 мс.
Ника, 2013 год
Номинации (1):
Лучшая женская роль (Мария Шалаева)--Кинотавр, 2012 год
Победитель (1):
Главный приз
Трейлер
Download / Скачать

Хотите скачать бесплатно? Зарегистрируйтесь на сайте (ссылка на регистрацию). Pirat.ca - самый быстрый торрент трекер в рунете!

Как скачивать  ·   Что такое торрент  ·   Рейтинг и ограничения

Пост 22-Ноя-2013 18:08 (спустя 2 часа 48 минут)

Топик был перенесен из форума Наше кино (Трюм) в форум Российские фильмы
ara1205
 
Показать сообщения:    
Ответить на тему

Текущее время: Сегодня 18:38

Часовой пояс: GMT + 4



Вы не можете начинать темы
Вы не можете отвечать на сообщения
Вы не можете редактировать свои сообщения
Вы не можете удалять свои сообщения
Вы не можете голосовать в опросах
Вы не можете прикреплять файлы к сообщениям
Вы не можете скачивать файлы

▼ Вниз