ML
     
  Уважаемый Гость!
Вы можете поддержать проект и зарегистрироваться у наших партнеров - онлайн-стратегия MyLands. При регистрации в игре Вы получите код, который сможете активировать после регистрации на pirat.ca и получить 1000 дублонов.

Ваш код:
8b29d0f8cd61fe457e59e7df0aa1fab41a2b88b9
 
     

Конец света (Богдан Дробязко) [2012 г., детектив, DVDRip]

Ответить на тему
 
Автор
Сообщение

Пост 25-Ноя-2013 08:00

[Q] 

aleksey99

-Конец света- Производство: Россия, ТриИкс Медиа
Режиссер: Богдан Дробязко
Жанр: детектив
Год выпуска: 2012 г.
Продолжительность: 01:24:41-Российская премьера: 21 декабря 2012
Релиз на DVD: 21 мая 2013, «Русское счастье»-В ролях: Валентин Кузнецов, Алексей Фокин, Владимир Матвеев, Вячеслав Коробицин. Екатерина Зорина, Галина Сумина, Михаил Соловьев, Олег Абалян, Руслан Барабанов, Игорь Головин-Описание: Действие фильма происходит в день, когда весь мир ждет очередного конца света, на этот раз по календарю Майя. Город шумит: радио, афиши, люди на улицах — все спекулируют на конце света. У оперативника уголовного розыска н-ского района Соколова в этот день собственный конец света — его выгнала жена, поскольку заподозрила в измене.
«Конец света» — это история длиной в один бесконечный день. Для главного героя — опера Соколова — всё закончится и начнётся заново. Ему нужно лишь пережить этот день.- -Качество видео: DVDRip
Контейнер: AVI
Видео кодек: XviD
Аудио кодек: AC3
Видео: 720x384 (1.88:1), 25 fps, XviD build 50 ~1853 kbps avg, 0.27 bit/pixel
Аудио: 48 kHz, AC3 Dolby Digital, 3/2 (L,C,R,l,r) + LFE ch, ~448 kbps
Cубтитры: отсутствуют
Общее
Полное имя : H:\Torrent2\Konec.sveta.2012.O.DVDRip_[pirat.ca].avi
Формат : AVI
Формат/Информация : Audio Video Interleave
Размер файла : 1,37 Гбайт
Продолжительность : 1 ч. 24 м.
Общий поток : 2311 Кбит/сек
Программа кодирования : VirtualDubMod 1.5.10.3 | www.virtualdub-fr.org || (build 2550/release)
Библиотека кодирования : VirtualDubMod build 2550/release
Видео
Идентификатор : 0
Формат : MPEG-4 Visual
Профиль формата : Advanced [email protected]
Параметр BVOP формата : 2
Параметр QPel формата : Нет
Параметр GMC формата : Без точки перехода
Параметр матрицы формата : Default (MPEG)
Идентификатор кодека : XVID
Идентификатор кодека/Подсказка : XviD
Продолжительность : 1 ч. 24 м.
Битрейт : 1854 Кбит/сек
Ширина : 720 пикселей
Высота : 384 пикселя
Соотношение сторон : 1,85:1
Частота кадров : 25,000 кадров/сек
Цветовое пространство : YUV
Субдискретизация насыщенности : 4:2:0
Битовая глубина : 8 бит
Тип развёртки : Прогрессивная
Метод сжатия : С потерями
Бит/(Пиксели*Кадры) : 0.268
Размер потока : 1,10 Гбайт (80%)
Библиотека кодирования : XviD 1.2.1 (UTC 2008-12-04)
Аудио
Идентификатор : 1
Формат : AC-3
Формат/Информация : Audio Coding 3
Расширение режима : CM (complete main)
Параметр Endianness формата : Big
Идентификатор кодека : 2000
Продолжительность : 1 ч. 24 м.
Вид битрейта : Постоянный
Битрейт : 448 Кбит/сек
Каналы : 6 каналов
Расположение каналов : Front: L C R, Side: L R, LFE
Частота : 48,0 КГц
Битовая глубина : 16 бит
Метод сжатия : С потерями
Размер потока : 271 Мбайт (19%)
Выравнивание : Разделение по промежуткам
Продолжительность промежутка : 40 мс. (1,00 видеокадр)
Время предзагрузки промежутка : 500 мс.
Download / Скачать

Хотите скачать бесплатно? Зарегистрируйтесь на сайте (ссылка на регистрацию). Pirat.ca - самый быстрый торрент трекер в рунете!

Как скачивать  ·   Что такое торрент  ·   Рейтинг и ограничения

Пост 25-Ноя-2013 09:43 (спустя 1 час 43 минуты)

Топик был перенесен из форума Наше кино (Трюм) в форум Российские фильмы
kugesan
 

UA4HQW

Флибустьер

2528

Пост 28-Ноя-2013 09:20 (спустя 3 дня)

[Q] 

Неплохой фильмец . Посмотрел с удовольствием .
Автору респект!!!
[Профиль]  [ЛС] 
Показать сообщения:    
Ответить на тему

Текущее время: Сегодня 21:24

Часовой пояс: GMT + 4



Вы не можете начинать темы
Вы не можете отвечать на сообщения
Вы не можете редактировать свои сообщения
Вы не можете удалять свои сообщения
Вы не можете голосовать в опросах
Вы не можете прикреплять файлы к сообщениям
Вы не можете скачивать файлы

▼ Вниз