ML
     
  Уважаемый Гость!
Вы можете поддержать проект и зарегистрироваться у наших партнеров - онлайн-стратегия MyLands. При регистрации в игре Вы получите код, который сможете активировать после регистрации на pirat.ca и получить 1000 дублонов.

Ваш код:
dbd0d701284cde74a1f34d06ce20b7bc75a73e75
 
     

Сокровища О.К. (Дмитрий Коробкин) [2013 г., комедия, приключения, BDRip][Лицензия]

Ответить на тему
 
Автор
Сообщение

Пост 27-Ноя-2013 07:13

[Q] 

aleksey99

--Сокровища О.К.--«Нет времени объяснять»-- Производство: Россия
Режиссер: Дмитрий Коробкин
Жанр: комедия, приключения
Год выпуска: 2013 г.
Продолжительность: 01:33:26--Мировая премьера: 3 мая 2013
Российская премьера: 1 мая 2013, «Двадцатый Век Фокс СНГ»
Дата выхода DVD: 21 ноября 2013, «CP Дистрибуция»
Дата выхода Blu-Ray: 21 ноября 2013, «CP Дистрибуция»--В ролях: Алексей Воробьёв, Эльвира Ибрагимова, Мария Кожевникова, Байбулат Батуллин, Гоша Куценко, Сергей Шакуров, Виктор Вержбицкий, Ольга Волкова, Светлана Чуйкина, Сергей Никоненко, Юлия Березикова, В. Логвинов, Анвар Халилулаев, Халима Искандерова, Валентин Якупов, Денис Ясик, Михаил Водзуми--Описание: Во время осады Казани Иваном Грозным прекрасная ханша Сююмбике приказывает спрятать несметные богатства в озере Кабан. И вот уже 500 лет судьба клада неизвестна… В наши дни тайна сокровищ открывается обаятельному ловеласу Кириллу, и он устремляется на поиски заветного клада. На пути к богатствам Кирилл знакомится с неприступной красавицей Гулей, которая совершенно не собирается попадать под влияние чар авантюриста. Но совместные похождения и постоянно преследующая опасность заставляют молодых людей иначе посмотреть друг на друга. И неужели только сокровища могут стать главной наградой за опасные приключения?!-- --Качество видео: BDRip
Контейнер: AVI
Видео кодек: XviD
Аудио кодек: AC3
Видео: 720x400 (1.80:1), 25 fps, XviD build 50 ~1554 kbps avg, 0.22 bit/pixel
Аудио: 48 kHz, AC3 Dolby Digital, 3/2 (L,C,R,l,r) + LFE ch, ~448 kbps
Cубтитры: отсутствуют
Общее
Полное имя : H:\Torrent2\Sokrovischa.OK_.2013.O.BDRip_[pirat.ca].avi
Формат : AVI
Формат/Информация : Audio Video Interleave
Размер файла : 1,46 Гбайт
Продолжительность : 1 ч. 44 м.
Общий поток : 2012 Кбит/сек
Программа кодирования : VirtualDubMod 1.5.10.3 (build 2550/release)
Библиотека кодирования : VirtualDubMod build 2550/release
Видео
Идентификатор : 0
Формат : MPEG-4 Visual
Профиль формата : Advanced [email protected]
Параметр BVOP формата : 2
Параметр QPel формата : Нет
Параметр GMC формата : Без точки перехода
Параметр матрицы формата : Выборочная
Идентификатор кодека : XVID
Идентификатор кодека/Подсказка : XviD
Продолжительность : 1 ч. 44 м.
Битрейт : 1554 Кбит/сек
Ширина : 720 пикселей
Высота : 400 пикселей
Соотношение сторон : 16:9
Частота кадров : 25,000 кадров/сек
Цветовое пространство : YUV
Субдискретизация насыщенности : 4:2:0
Битовая глубина : 8 бит
Тип развёртки : Прогрессивная
Метод сжатия : С потерями
Бит/(Пиксели*Кадры) : 0.216
Размер потока : 1,13 Гбайт (77%)
Библиотека кодирования : XviD 1.2.1 (UTC 2008-12-04)
Аудио
Идентификатор : 1
Формат : AC-3
Формат/Информация : Audio Coding 3
Расширение режима : CM (complete main)
Параметр Endianness формата : Big
Идентификатор кодека : 2000
Продолжительность : 1 ч. 44 м.
Вид битрейта : Постоянный
Битрейт : 448 Кбит/сек
Каналы : 6 каналов
Расположение каналов : Front: L C R, Side: L R, LFE
Частота : 48,0 КГц
Битовая глубина : 16 бит
Метод сжатия : С потерями
Размер потока : 333 Мбайт (22%)
Выравнивание : Разделение по промежуткам
Продолжительность промежутка : 40 мс. (1,00 видеокадр)
Время предзагрузки промежутка : 500 мс.
Трейлер
Download / Скачать

Хотите скачать бесплатно? Зарегистрируйтесь на сайте (ссылка на регистрацию). Pirat.ca - самый быстрый торрент трекер в рунете!

Как скачивать  ·   Что такое торрент  ·   Рейтинг и ограничения

Пост 27-Ноя-2013 13:26 (спустя 6 часов)

Топик был перенесен из форума Наше кино (Трюм) в форум Новинки (HD|DVD|BD| TV|SAT|PDTV| - Rips)
ara1205
 

shalonina

Гроза морей

Пост 27-Ноя-2013 14:46 (спустя 7 часов)

[Q] 

посмотрим.... Спасибо!!!

_________________
[Профиль]  [ЛС] 

viktor174

Корсар

Пост 27-Ноя-2013 15:54 (спустя 1 час 8 минут)

[Q] 

Смотреть можно, местами даже можно посмеяться . Спасибо!!!
[Профиль]  [ЛС] 

tarasoid

Лоцман

Пост 28-Ноя-2013 12:52 (спустя 20 часов)

[Q] 

Я думал, такое уже не снимают...
[Профиль]  [ЛС] 

E8GEN

Корсар

Пост 29-Ноя-2013 12:53 (спустя 1 день)

[Q] 

так себе кинцо,просто что бы убить 1.5 часа)
[Профиль]  [ЛС] 

zloiaspirant

Корсар

Пост 29-Ноя-2013 14:04 (спустя 1 час 10 минут)

[Q] 

Поглядим, заценим. Автору респект!
[Профиль]  [ЛС] 

KIRST

Корсар

Пост 29-Ноя-2013 20:08 (спустя 6 часов)

[Q] 

Спасибо. Посмотрим.
[Профиль]  [ЛС] 

СерКат

Корсар

Пост 30-Ноя-2013 20:29 (спустя 1 день)

[Q] 

можно разок,есть места улыбнуться,артисты былые присутствуют
[Профиль]  [ЛС] 

SergeyIR

Шкипер

Пост 01-Дек-2013 00:41 (спустя 4 часа)

[Q] 

Даже для 12+ фильм слишком глупый. Есть такая традиция, фильмы для детей снимать как для идиотов.
[Профиль]  [ЛС] 

tema5.88

Морской Волк

2

Пост 01-Дек-2013 09:19 (спустя 8 часов)

[Q] 

1 раз посмотреть можно, Кожевникова зачет!
[Профиль]  [ЛС] 

Dysy

Морской Волк

Пост 11-Дек-2013 00:56 (спустя 9 дней)

[Q] 

455402Я думал, такое уже не снимают...
cm bp
[Профиль]  [ЛС] 

fando

Штурман

Пост 13-Янв-2014 11:00 (спустя 1 месяц 2 дня)

[Q] 

aa На любителя
[Профиль]  [ЛС] 
Показать сообщения:    
Ответить на тему

Текущее время: Сегодня 18:34

Часовой пояс: GMT + 4



Вы не можете начинать темы
Вы не можете отвечать на сообщения
Вы не можете редактировать свои сообщения
Вы не можете удалять свои сообщения
Вы не можете голосовать в опросах
Вы не можете прикреплять файлы к сообщениям
Вы не можете скачивать файлы

▼ Вниз