ML
     
  Уважаемый Гость!
Вы можете поддержать проект и зарегистрироваться у наших партнеров - онлайн-стратегия MyLands. При регистрации в игре Вы получите код, который сможете активировать после регистрации на pirat.ca и получить 1000 дублонов.

Ваш код:
156f85568ae63e45e07ac461c96a83ba1a876b0a
 
     

Идеальное убийство (Андрей Хрулев) [2013 г., детектив, SATRip]

Ответить на тему
 
Автор
Сообщение

Пост 02-Дек-2013 16:26

[Q] 

UA4HQW

Флибустьер

-Идеальное убийство-- Производство: Россия, StarMedia, Телекомпания НТВ
Режиссер: Андрей Хрулев
Жанр: детектив
Год выпуска: 2013 г.
Продолжительность: 01:25:12
В ролях: Валерий Николаев, Светлана Иванова, Антонина Дивина, Антон Яковлев (III), Алексей Лонгин, Александр Горелов (II)-Описание: Ольга хотела быть счастливой. И у ее счастья есть совершенно четкие определения: успешный муж, полный достаток в доме, дорогая одежда, возможность путешествовать и ни от кого не зависеть. В ее детском доме все было по-другому и его воспитанникам оставалось только мечтать. Каждый о своем, а ей уже давно удалось вывести свою формулу счастья. Она стремилась к нему, и она его получила... Известный адвокат Сергей Арзамасов берется за бракоразводное дело Ольги Лавровой, которая ежедневно подвергается насилию со стороны своего супруга Игоря и которую тот жестоко избивает. И первый раз в жизни он идет вопреки сложившимся этическим и профессиональным принципам, бросается в водоворот своих желаний. Она ведь так интересна, так многогранна и беззащитна. Их бурный роман вспыхивает как пламя, которое уже не загасить. Однажды любовников застает муж Ольги, и между ним и Сергеем завязывается драка. Пытаясь защитить Арзамасова, Ольга убивает мужа. Теперь Сергею предстоит защищать Ольгу в суде.-Сэмпл
Качество видео: SATRip
Контейнер: AVI
Видео кодек: XviD
Аудио кодек: MP3
Видео: 688x368 (1.87:1), 25 fps, XviD build 64 ~1013 kbps avg, 0.16 bit/pixel
Аудио: 48 kHz, MPEG Layer 3, 1 ch, ~128.00 kbps avg
Cубтитры: отсутствуют
Общее
Полное имя : C:\Users\Админ\Desktop\Идеальное убийство.SATRip.2013.avi
Формат : AVI
Формат/Информация : Audio Video Interleave
Размер файла : 700 Мбайт
Продолжительность : 1 ч. 25 м.
Общий поток : 1149 Кбит/сек
Программа кодирования : VirtualDubMod 1.5.4.1 (build 2178/release)
Библиотека кодирования : VirtualDubMod build 2178/release
Видео
Идентификатор : 0
Формат : MPEG-4 Visual
Профиль формата : Advanced [email protected]
Параметр BVOP формата : 1
Параметр QPel формата : Нет
Параметр GMC формата : Без точки перехода
Параметр матрицы формата : Выборочная
Идентификатор кодека : XVID
Идентификатор кодека/Подсказка : XviD
Продолжительность : 1 ч. 25 м.
Битрейт : 1013 Кбит/сек
Ширина : 688 пикс.
Высота : 368 пикс.
Соотношение сторон : 1,870
Частота кадров : 25,000 кадр/сек
Цветовое пространство : YUV
Подвыборка цветности : 4:2:0
Битовая глубина : 8 бит
Тип развёртки : Прогрессивная
Метод сжатия : С потерями
Бит/(Пиксели*Кадры) : 0.160
Размер потока : 618 Мбайт (88%)
Библиотека кодирования : XviD 64
Аудио
Идентификатор : 1
Формат : MPEG Audio
Версия формата : Version 1
Профиль формата : Layer 3
Идентификатор кодека : 55
Идентификатор кодека/Подсказка : MP3
Продолжительность : 1 ч. 25 м.
Вид битрейта : Постоянный
Битрейт : 128 Кбит/сек
Каналы : 1 канал
Частота : 48,0 КГц
Метод сжатия : С потерями
Размер потока : 78,0 Мбайт (11%)
Выравнивание : Соединение по промежуткам
Продолжительность промежутка : 80 мс. (2,00 видеокадра)
Время предзагрузки промежутка : 504 ms
Библиотека кодирования : LAME3.98r
Настройки программы : -m m -V 4 -q 2 -lowpass 20.5 -b 128
Download / Скачать

Хотите скачать бесплатно? Зарегистрируйтесь на сайте (ссылка на регистрацию). Pirat.ca - самый быстрый торрент трекер в рунете!

Как скачивать  ·   Что такое торрент  ·   Рейтинг и ограничения



Последний раз редактировалось: UA4HQW (2013-12-02 17:54), всего редактировалось 1 раз

Пост 02-Дек-2013 17:58 (спустя 1 час 31 минута)

Топик был перенесен из форума Наше кино (Трюм) в форум Российские фильмы
aleksey99
 

tango07

Корсар

Пост 04-Дек-2013 14:26 (спустя 1 день 21 час)

[Q] 

Спасибо раздающему
[Профиль]  [ЛС] 

FreshMeat

Морской Волк

Пост 09-Фев-2014 09:39 (спустя 2 месяца 4 дня)

[Q] 

дайте скорости Эй, вернитесь на раздачу...

_________________
[Профиль]  [ЛС] 

Евгений Чередников

Морской Волк

Пост 14-Фев-2014 10:00 (спустя 5 дней)

[Q] 

Раздавать будем или как? вчетвером застряли на 48 %,я до утра подожду ещё и брошу эту затею ждать раздачу.

_________________
[Профиль]  [ЛС] 
Показать сообщения:    
Ответить на тему

Текущее время: Сегодня 22:01

Часовой пояс: GMT + 4



Вы не можете начинать темы
Вы не можете отвечать на сообщения
Вы не можете редактировать свои сообщения
Вы не можете удалять свои сообщения
Вы не можете голосовать в опросах
Вы не можете прикреплять файлы к сообщениям
Вы не можете скачивать файлы

▼ Вниз