ML
     
  Уважаемый Гость!
Вы можете поддержать проект и зарегистрироваться у наших партнеров - онлайн-стратегия MyLands. При регистрации в игре Вы получите код, который сможете активировать после регистрации на pirat.ca и получить 1000 дублонов.

Ваш код:
4399ab8611ee7f8a22949d2ee7634160dd2db7e0
 
     

Всё включено 2 (Эдуард Радзюкевич) [2013 г., комедия, DVDRip] [Лицензия]

Ответить на тему
 
Автор
Сообщение

Пост 05-Дек-2013 22:54

[Q] 

Gromilo

Флибустьер

-Всё включено 2-- Производство: Россия
Режиссер: Эдуард Радзюкевич
Жанр: комедия
Год выпуска: 2013 г.
Продолжительность: 01:35:10
Российская премьера: 3 октября 2013
Дата выхода DVD: 9 декабря 2013
Дата выхода Blu-Ray: 16 декабря 2013-В ролях: Михаил Беспалов, Фёдор Добронравов, Роман Мадянов, Сергей Бурунов, Эдуард Радзюкевич, Андрей Кайков, Григорий Сиятвинда, Карэн Бадалов, Илья Уткин, Михаил Сёмин-Описание: Когда приятель похож на тебя как две капли воды, тут уж грех не поучаствовать в конкурсе двойников и не срубить легкие деньги в доллар-эквиваленте. И разве может помешать то, что ради этого надо лететь в Стамбул накануне собственной свадьбы?! Чтобы доказать будущему тестю-олигарху, что он способен позаботиться о его дочери, Андрей скрывает от невесты истинную цель своего путешествия и улетает в Турцию. Только планам парня не суждено сбыться, когда он встречает в Стамбуле старинных врагов и безумных друзей. И те, и другие превратят турецкий вояж Андрея в сумасшедший калейдоскоп приключений с риском для жизни.-Сэмпл КиноПоиск
Качество видео: DVDRip
Контейнер: AVI
Видео кодек: XviD
Аудио кодек: AC3
Видео: MPEG-4 Visual at 1530 Кбит/сек: 720 x 304 (2.368) at 25.000 fps, 0.317 Бит/Пиксели
Аудио: AC-3 at 448 Кбит/сек: 6 каналов, 48,0 КГц
Cубтитры: отсутствуют
Общее
Полное имя : D:\CD-RIP\VSE_VKLUCHENO.DVDRip.bog3417.avi
Формат : AVI
Формат/Информация : Audio Video Interleave
Размер файла : 1,46 Гбайт
Продолжительность : 1 ч. 35 м.
Общий поток : 2192 Кбит/сек
Программа кодирования : VirtualDubMod 1.5.10.3 | www.virtualdub-fr.org || (build 2550/release)
Библиотека кодирования : VirtualDubMod build 2550/release
Видео
Идентификатор : 0
Формат : MPEG-4 Visual
Профиль формата : Advanced [email protected]
Параметр BVOP формата : 2
Параметр QPel формата : Нет
Параметр GMC формата : Без точки перехода
Параметр матрицы формата : Выборочная
Идентификатор кодека : XVID
Идентификатор кодека/Подсказка : XviD
Продолжительность : 1 ч. 35 м.
Битрейт : 1734 Кбит/сек
Ширина : 720 пикселей
Высота : 304 пикселя
Соотношение сторон : 2,35:1
Частота кадров : 25,000 кадров/сек
Цветовое пространство : YUV
Субдискретизация насыщенности : 4:2:0
Битовая глубина : 8 бит
Тип развёртки : Прогрессивная
Метод сжатия : С потерями
Бит/(Пиксели*Кадры) : 0.317
Размер потока : 1,15 Гбайт (79%)
Библиотека кодирования : XviD 1.2.1 (UTC 2008-12-04)
Аудио
Идентификатор : 1
Формат : AC-3
Формат/Информация : Audio Coding 3
Расширение режима : CM (complete main)
Параметр Endianness формата : Big
Идентификатор кодека : 2000
Продолжительность : 1 ч. 35 м.
Вид битрейта : Постоянный
Битрейт : 448 Кбит/сек
Каналы : 6 каналов
Расположение каналов : Front: L C R, Side: L R, LFE
Частота : 48,0 КГц
Битовая глубина : 16 бит
Метод сжатия : С потерями
Размер потока : 305 Мбайт (20%)
Выравнивание : Разделение по промежуткам
Продолжительность промежутка : 40 мс. (1,00 видеокадр)
Время предзагрузки промежутка : 500 мс.
Download / Скачать

Хотите скачать бесплатно? Зарегистрируйтесь на сайте (ссылка на регистрацию). Pirat.ca - самый быстрый торрент трекер в рунете!

Как скачивать  ·   Что такое торрент  ·   Рейтинг и ограничения



Последний раз редактировалось: Gromilo (2013-12-05 23:13), всего редактировалось 3 раз(а)

dragan123

Морской Волк

Пост 05-Дек-2013 22:56 (спустя 1 минута)

[Q] 

спасибки
[Профиль]  [ЛС] 

Пост 05-Дек-2013 23:15 (спустя 18 минут)

Топик был перенесен из форума Наше кино (Трюм) в форум Новинки (HD|DVD|BD| TV|SAT|PDTV| - Rips)
kugesan
 

Hireling

Морской Волк

Пост 07-Дек-2013 20:38 (спустя 1 день 21 час)

[Q] 

Ничего, {мат}, не выключается. 2 из 10.
[Профиль]  [ЛС] 

vest1994

Лоцман

Пост 09-Дек-2013 07:36 (спустя 1 день 10 часов)

[Q] 

фильм просто ужасный, мне за них стыдно!

_________________
alex
[Профиль]  [ЛС] 

Zetvelkras

Шкипер

Пост 17-Мар-2014 14:58 (спустя 3 месяца 8 дней)

[Q] 

Фильм На любителя но все равно Спасибо!!!
[Профиль]  [ЛС] 

R_O_Z_A

Морской Волк

Пост 25-Фев-2015 22:11 (спустя 11 месяцев 8 дней)

[Q] 

фильм классный,но местами быват так се...
[Профиль]  [ЛС] 
Показать сообщения:    
Ответить на тему

Текущее время: Сегодня 10:45

Часовой пояс: GMT + 4



Вы не можете начинать темы
Вы не можете отвечать на сообщения
Вы не можете редактировать свои сообщения
Вы не можете удалять свои сообщения
Вы не можете голосовать в опросах
Вы не можете прикреплять файлы к сообщениям
Вы не можете скачивать файлы

▼ Вниз