ML
     
  Уважаемый Гость!
Вы можете поддержать проект и зарегистрироваться у наших партнеров - онлайн-стратегия MyLands. При регистрации в игре Вы получите код, который сможете активировать после регистрации на pirat.ca и получить 1000 дублонов.

Ваш код:
1a5b0a965618b2c406d4279ec9924ee6282c60cf
 
     

Всё включено 2 (Эдуард Радзюкевич) [2013 г., комедия, DVDRip-AVC]

Ответить на тему
 
Автор
Сообщение

Пост 06-Дек-2013 11:25

[Q] 

aleksey99

--Всё включено 2--«Полный All in»-- Производство: Россия
Режиссер: Эдуард Радзюкевич
Жанр: комедия
Год выпуска: 2013 г.
Продолжительность: 01:35:10--Мировая премьера: 3 октября 2013
Премьера (РФ): 3 октября 2013, «Парадиз»
Релиз на DVD: 9 декабря 2013, «Новый Диск»
Релиз на Blu-Ray: 16 декабря 2013, «Новый Диск»--В ролях: Михаил Беспалов, Фёдор Добронравов, Роман Мадянов, Сергей Бурунов, Эдуард Радзюкевич, Андрей Кайков, Григорий Сиятвинда, Карэн Бадалов, Илья Уткин, Михаил Сёмин--Описание: Когда приятель похож на тебя как две капли воды, тут уж грех не поучаствовать в конкурсе двойников и не срубить легкие деньги в доллар-эквиваленте. И разве может помешать то, что ради этого надо лететь в Стамбул накануне собственной свадьбы?! Чтобы доказать будущему тестю-олигарху, что он способен позаботиться о его дочери, Андрей скрывает от невесты истинную цель своего путешествия и улетает в Турцию. Только планам парня не суждено сбыться, когда он встречает в Стамбуле старинных врагов и безумных друзей. И те, и другие превратят турецкий вояж Андрея в сумасшедший калейдоскоп приключений с риском для жизни.-- --Качество видео: DVDRip-AVC
Контейнер: MKV
Видео кодек: H.264
Аудио кодек: AC3
Видео: AVC at 1 741 Кбит/сек, 1024x448 at 25.000 fps
Аудио: 48 kHz, AC3 Dolby Digital, 3/2 (L,C,R,l,r) + LFE ch, ~448 kbps
Cубтитры: отсутствуют
Общее
Уникальный идентификатор : 232375971424056091016126644414996337869 (0xAED1FBF2B5039272A256417F79C4D4CD)
Полное имя : D:\Torrent 2\Vsjo.vkljucheno.2.2013.O.DVDRip.AVC_[pirat.ca].mkv
Формат : Matroska
Версия формата : Version 2
Размер файла : 1,46 Гбайт
Продолжительность : 1 ч. 35 м.
Общий поток : 2191 Кбит/сек
Дата кодирования : UTC 2013-12-06 02:58:37
Программа кодирования : mkvmerge v6.1.0 ('Old Devil') built on Mar 4 2013 09:10:42
Библиотека кодирования : libebml v1.3.0 + libmatroska v1.4.0
Видео
Идентификатор : 1
Формат : AVC
Формат/Информация : Advanced Video Codec
Профиль формата : [email protected]
Параметр CABAC формата : Да
Параметр ReFrames формата : 10 кадров
Идентификатор кодека : V_MPEG4/ISO/AVC
Продолжительность : 1 ч. 35 м.
Битрейт : 1741 Кбит/сек
Ширина : 1024 пикселя
Высота : 448 пикселей
Соотношение сторон : 2,25:1
Режим частоты кадров : Постоянный
Частота кадров : 25,000 кадров/сек
Цветовое пространство : YUV
Субдискретизация насыщенности : 4:2:0
Битовая глубина : 8 бит
Тип развёртки : Прогрессивная
Бит/(Пиксели*Кадры) : 0.152
Размер потока : 1,13 Гбайт (78%)
Библиотека кодирования : x264 core 130 r2273 b3065e6
Настройки программы : cabac=1 / ref=10 / deblock=1:-3:-3 / analyse=0x3:0x133 / me=umh / subme=11 / psy=1 / psy_rd=1.00:0.20 / mixed_ref=1 / me_range=32 / chroma_me=1 / trellis=2 / 8x8dct=1 / cqm=0 / deadzone=21,11 / fast_pskip=0 / chroma_qp_offset=-3 / threads=12 / lookahead_threads=2 / sliced_threads=0 / nr=0 / decimate=0 / interlaced=0 / bluray_compat=0 / constrained_intra=0 / bframes=8 / b_pyramid=2 / b_adapt=2 / b_bias=0 / direct=3 / weightb=1 / open_gop=0 / weightp=2 / keyint=250 / keyint_min=25 / scenecut=40 / intra_refresh=0 / rc=2pass / mbtree=0 / bitrate=1741 / ratetol=1.0 / qcomp=0.60 / qpmin=0 / qpmax=69 / qpstep=4 / cplxblur=20.0 / qblur=0.5 / ip_ratio=1.40 / pb_ratio=1.30 / aq=1:1.00
Default : Да
Forced : Нет
Аудио
Идентификатор : 2
Формат : AC-3
Формат/Информация : Audio Coding 3
Расширение режима : CM (complete main)
Параметр Endianness формата : Big
Идентификатор кодека : A_AC3
Продолжительность : 1 ч. 35 м.
Вид битрейта : Постоянный
Битрейт : 448 Кбит/сек
Каналы : 6 каналов
Расположение каналов : Front: L C R, Side: L R, LFE
Частота : 48,0 КГц
Битовая глубина : 16 бит
Метод сжатия : С потерями
Размер потока : 305 Мбайт (20%)
Default : Да
Forced : Нет
Трейлер
Download / Скачать

Хотите скачать бесплатно? Зарегистрируйтесь на сайте (ссылка на регистрацию). Pirat.ca - самый быстрый торрент трекер в рунете!

Как скачивать  ·   Что такое торрент  ·   Рейтинг и ограничения

Пост 06-Дек-2013 12:02 (спустя 36 минут)

Топик был перенесен из форума Наше кино (Трюм) в форум Новинки (HD|DVD|BD| TV|SAT|PDTV| - Rips)
ara1205
 

slauko

Штурман

Пост 06-Дек-2013 14:31 (спустя 3 часа)

[Q] 

спс будем посмотреть Лови бочку
[Профиль]  [ЛС] 

Hireling

Морской Волк

Пост 07-Дек-2013 20:40 (спустя 1 день 6 часов)

[Q] 

в топку. 2 из 10
[Профиль]  [ЛС] 

Vinyard

Корсар

Пост 07-Дек-2013 23:14 (спустя 2 часа 33 минуты)

[Q] 

вынужден скачать.
подбор актеров хороший
первая часть не плохая.
да и жена ноет давай посмотрим.
[Профиль]  [ЛС] 

lebonnet

Флибустьер

Пост 08-Дек-2013 21:46 (спустя 22 часа)

[Q] 

рейтинг говорит о многом
[Профиль]  [ЛС] 

Dysy

Морской Волк

Пост 11-Дек-2013 00:51 (спустя 2 дня 3 часа)

[Q] 

459638вынужден скачать.
подбор актеров хороший
первая часть не плохая.
да и жена ноет давай посмотрим.
согласен Супер! Автору респект!!!
[Профиль]  [ЛС] 

ALEHAN

Легенда

Пост 11-Дек-2013 20:19 (спустя 19 часов)

[Q] 

низкопробное кино.
[Профиль]  [ЛС] 

spartakov

Штурман

Пост 07-Янв-2014 21:30 (спустя 27 дней)

[Q] 

посмотреть можно раз. но вообщем-то фигня
[Профиль]  [ЛС] 

tyz82

Шкипер

Пост 08-Янв-2014 13:10 (спустя 15 часов)

[Q] 

1 круче, 2 гуано....

_________________
Не так страшен Русский танк, как его пьяный экипаж !!!
[Профиль]  [ЛС] 

FeudorM

Корсар

Пост 21-Янв-2014 17:02 (спустя 13 дней)

[Q] 

Спасибо!!! да если и хоть на раз, стоит глянуть
[Профиль]  [ЛС] 

Scriber

Шкипер

Пост 05-Фев-2014 14:45 (спустя 14 дней)

[Q] 

первую часть посмотрели - посмеялись. вторую начали смотреть - выключили, удалил
[Профиль]  [ЛС] 
Показать сообщения:    
Ответить на тему

Текущее время: Сегодня 23:48

Часовой пояс: GMT + 4



Вы не можете начинать темы
Вы не можете отвечать на сообщения
Вы не можете редактировать свои сообщения
Вы не можете удалять свои сообщения
Вы не можете голосовать в опросах
Вы не можете прикреплять файлы к сообщениям
Вы не можете скачивать файлы

▼ Вниз