ML
     
  Уважаемый Гость!
Вы можете поддержать проект и зарегистрироваться у наших партнеров - онлайн-стратегия MyLands. При регистрации в игре Вы получите код, который сможете активировать после регистрации на pirat.ca и получить 1000 дублонов.

Ваш код:
4399ab8611ee7f8a22949d2ee7634160dd2db7e0
 
     

Майор (Юрий Быков) [2013 г., криминал, драма, HDRip] [Лицензия]

Ответить на тему
 
Автор
Сообщение

Пост 07-Дек-2013 19:35

[Q] 

ara1205

-Майор-- Производство: Россия
Год выпуска: 2013 г.
Жанр: криминал, драма
Продолжительность: 01:39:21-Режиссер: Юрий Быков-В ролях: Денис Шведов, Ирина Низина, Илья Исаев, Юрий Быков, Дмитрий Куличков, Борис Невзоров, Кирилл Полухин, Иван Руденко, Егор Губарев, Николай Зазуля, Владимир Любовский-Описание: В день долгожданных родов своей жены майор полиции Сергей Соболев мчится в роддом вне себя от счастья. На скользкой зимней дороге он насмерть сбивает семилетнего мальчика на глазах у несчастной матери. Превышение скорости, неосторожность и пешеходный переход — доказательства очевидны, как и нежелание молодого отца угодить за решетку. Майор использует свое служебное положение, чтобы оправдать себя… Сам того не желая, он запускает целую череду смертей, остановить которую решится слишком поздно.- -Качество видео: HDRip
Контейнер: AVI
Видео кодек: XviD
Аудио кодек: MP3
Видео: 688x288, 24 fps, 908 kbps avg, 0.191 bit/pixel
Аудио: 48 kHz, MP3, 2 ch, ~128 kbps
Cубтитры: отсутствуют-
Общее
Полное имя : C:\Users\Ромик\Pictures\Майор\Mayor.2013.HDRip.745.avi
Формат : AVI
Формат/Информация : Audio Video Interleave
Размер файла : 743 Мбайт
Продолжительность : 1 ч. 39 м.
Общий поток : 1045 Кбит/сек
Программа кодирования : VirtualDubMod 1.5.10.2 (build 2540/release)
Видео
Идентификатор : 0
Формат : MPEG-4 Visual
Профиль формата : Advanced [email protected]
Параметр BVOP формата : 2
Параметр QPel формата : Нет
Параметр GMC формата : Без точки перехода
Параметр матрицы формата : Default (MPEG)
Идентификатор кодека : XVID
Идентификатор кодека/Подсказка : XviD
Продолжительность : 1 ч. 39 м.
Битрейт : 908 Кбит/сек
Ширина : 688 пикселей
Высота : 288 пикселей
Соотношение сторон : 2,40:1
Частота кадров : 24,000 кадра/сек
Цветовое пространство : YUV
Субдискретизация насыщенности : 4:2:0
Битовая глубина : 8 бит
Тип развёртки : Прогрессивная
Метод сжатия : С потерями
Бит/(Пиксели*Кадры) : 0.191
Размер потока : 645 Мбайт (87%)
Библиотека кодирования : XviD 1.2.1 (UTC 2008-12-04)
Аудио
Идентификатор : 1
Формат : MPEG Audio
Версия формата : Version 1
Профиль формата : Layer 3
Идентификатор кодека : 55
Идентификатор кодека/Подсказка : MP3
Продолжительность : 1 ч. 39 м.
Вид битрейта : Постоянный
Битрейт : 128 Кбит/сек
Каналы : 2 канала
Частота : 48,0 КГц
Метод сжатия : С потерями
Размер потока : 91,0 Мбайт (12%)
Выравнивание : Соединение по промежуткам
Продолжительность промежутка : 42 мс. (1,00 видеокадр)
Время предзагрузки промежутка : 504 мс.
Библиотека кодирования : LAMELAME_MAJOR_VERSI
-
-
Download / Скачать

Хотите скачать бесплатно? Зарегистрируйтесь на сайте (ссылка на регистрацию). Pirat.ca - самый быстрый торрент трекер в рунете!

Как скачивать  ·   Что такое торрент  ·   Рейтинг и ограничения

Seva78

1517

Пост 08-Дек-2013 17:41 (спустя 22 часа)

[Q] 

Вот такие дела творятся в наше время и не куда от этого не денешься.Фильм нормальный,смотреть можно.

_________________
[Профиль]  [ЛС] 

Benzyn

Штурман

Пост 18-Дек-2013 22:31 (спустя 10 дней)

[Q] 

Классика жанра
[Профиль]  [ЛС] 

palanat1

Морской Волк

Пост 19-Дек-2013 03:02 (спустя 4 часа)

[Q] 

ща качнем и глянем
Добавлено спустя 28 минут 18 секунд:
смотрю и думаю это КИНО, без всяких супер эфектов, только актерская работа и сюжет КЛАСС
Добавлено спустя 1 час 1 минута 45 секунд:
фильм сделан насовесть есть все картинка музыка и актерская работа
Добавлено спустя 11 минут 13 секунд:
печальная история
смотреть не всем
[Профиль]  [ЛС] 

beresneff

Штурман

Пост 19-Дек-2013 03:42 (спустя 40 минут)

[Q] 

фильм можно посмотреть на один раз депресуха полнейшая ментовский произвол как и в жизни скучный грустный фильм
[Профиль]  [ЛС] 

vetalyap

Морской Волк

Пост 20-Дек-2013 01:12 (спустя 21 час)

[Q] 

Сча глянем, хотя и так этого вокруг хватает!
[Профиль]  [ЛС] 

VanoCHIN

Морской Волк

Пост 20-Дек-2013 19:29 (спустя 18 часов)

[Q] 

все как обычно в стиле быкова. На любителя любитель заценит.
[Профиль]  [ЛС] 

kitailist

Штурман

Пост 20-Дек-2013 20:03 (спустя 34 минуты)

[Q] 

фильм хороший но на один раз, а то ауру портит
[Профиль]  [ЛС] 

Тошик

Морской Волк

Пост 01-Фев-2014 23:54 (спустя 1 месяц 12 дней)

[Q] 

Спасибо!!! Супер!
[Профиль]  [ЛС] 

Hippopotam

Корсар

Пост 27-Фев-2014 12:28 (спустя 25 дней)

[Q] 

Фильм произвел впечатление. Жестко, но точно и правдиво.
[Профиль]  [ЛС] 

legob

Лоцман

Пост 01-Мар-2014 10:40 (спустя 1 день 22 часа)

[Q] 

Очень тяжелый фильм, но жизнь бывает еще грязнее и жестче...
[Профиль]  [ЛС] 

nonamenm

Штурман

Пост 01-Мар-2014 12:37 (спустя 1 час 57 минут)

[Q] 

Спасибо !
Сейчас глянем.
[Профиль]  [ЛС] 
Показать сообщения:    
Ответить на тему

Текущее время: Сегодня 10:46

Часовой пояс: GMT + 4



Вы не можете начинать темы
Вы не можете отвечать на сообщения
Вы не можете редактировать свои сообщения
Вы не можете удалять свои сообщения
Вы не можете голосовать в опросах
Вы не можете прикреплять файлы к сообщениям
Вы не можете скачивать файлы

▼ Вниз