ML
     
  Уважаемый Гость!
Вы можете поддержать проект и зарегистрироваться у наших партнеров - онлайн-стратегия MyLands. При регистрации в игре Вы получите код, который сможете активировать после регистрации на pirat.ca и получить 1000 дублонов.

Ваш код:
4855957e17f50c5c1236a0f8c4492b2b0bba00a0
 
     

Всё включено 2 (Эдуард Радзюкевич) [2013 г., комедия, DVDRip] [Лицензия]

Ответить на тему
 
Автор
Сообщение

Пост 08-Дек-2013 00:09

[Q] 

ara1205

-Всё включено 2 -- Производство: Россия
Год выпуска: 2013 г.
Жанр: комедия
Продолжительность: 01:35:10-Режиссер: Эдуард Радзюкевич-В ролях: Михаил Беспалов, Фёдор Добронравов, Роман Мадянов, Сергей Бурунов, Эдуард Радзюкевич, Андрей Кайков, Григорий Сиятвинда, Карэн Бадалов, Илья Уткин, Михаил Сёмин-Описание: Когда приятель похож на тебя как две капли воды, тут уж грех не поучаствовать в конкурсе двойников и не срубить легкие деньги в доллар-эквиваленте. И разве может помешать то, что ради этого надо лететь в Стамбул накануне собственной свадьбы?! Чтобы доказать будущему тестю-олигарху, что он способен позаботиться о его дочери, Андрей скрывает от невесты истинную цель своего путешествия и улетает в Турцию. Только планам парня не суждено сбыться, когда он встречает в Стамбуле старинных врагов и безумных друзей. И те, и другие превратят турецкий вояж Андрея в сумасшедший калейдоскоп приключений с риском для жизни.- -Качество видео: DVDRip
Контейнер: AVI
Видео кодек: XviD
Аудио кодек: MP3
Видео: 688x304, 25 fps, 957 kbps avg, 0.183 bit/pixel
Аудио: 48 kHz, MP3, 2 ch, ~128 kbps
Cубтитры: отсутствуют-
Общее
Полное имя : C:\Users\Ромик\Pictures\Всё включено 2\Vsjo.vkljucheno.II.2013.DVDRip.745Mb.avi
Формат : AVI
Формат/Информация : Audio Video Interleave
Размер файла : 745 Мбайт
Продолжительность : 1 ч. 35 м.
Общий поток : 1095 Кбит/сек
Программа кодирования : VirtualDubMod 1.5.10.2 (build 2540/release)
Видео
Идентификатор : 0
Формат : MPEG-4 Visual
Профиль формата : Advanced [email protected]
Параметр BVOP формата : 2
Параметр QPel формата : Нет
Параметр GMC формата : Без точки перехода
Параметр матрицы формата : Default (MPEG)
Идентификатор кодека : XVID
Идентификатор кодека/Подсказка : XviD
Продолжительность : 1 ч. 35 м.
Битрейт : 957 Кбит/сек
Ширина : 688 пикселей
Высота : 304 пикселя
Соотношение сторон : 2,25:1
Частота кадров : 25,000 кадров/сек
Цветовое пространство : YUV
Субдискретизация насыщенности : 4:2:0
Битовая глубина : 8 бит
Тип развёртки : Прогрессивная
Метод сжатия : С потерями
Бит/(Пиксели*Кадры) : 0.183
Размер потока : 652 Мбайт (87%)
Библиотека кодирования : XviD 1.2.1 (UTC 2008-12-04)
Аудио
Идентификатор : 1
Формат : MPEG Audio
Версия формата : Version 1
Профиль формата : Layer 3
Идентификатор кодека : 55
Идентификатор кодека/Подсказка : MP3
Продолжительность : 1 ч. 35 м.
Вид битрейта : Постоянный
Битрейт : 128 Кбит/сек
Каналы : 2 канала
Частота : 48,0 КГц
Метод сжатия : С потерями
Размер потока : 87,1 Мбайт (12%)
Выравнивание : Соединение по промежуткам
Продолжительность промежутка : 40 мс. (1,00 видеокадр)
Время предзагрузки промежутка : 504 мс.
Библиотека кодирования : LAMELAME_MAJOR_VERSI
-
-
Download / Скачать

Хотите скачать бесплатно? Зарегистрируйтесь на сайте (ссылка на регистрацию). Pirat.ca - самый быстрый торрент трекер в рунете!

Как скачивать  ·   Что такое торрент  ·   Рейтинг и ограничения

Полтос

Флибустьер

Пост 08-Дек-2013 00:37 (спустя 28 минут)

[Q] 

Ребята, не ведитесь на эту хрень...

_________________
Первый закон Прапорщика: Всё что поднимаемо - относительно!)
[Профиль]  [ЛС] 

julikam

Гроза морей

Пост 15-Дек-2013 15:25 (спустя 7 дней)

[Q] 

ad

_________________

Не может быть отремонтировано только то, что не сломано.
[Профиль]  [ЛС] 

femaxx

Корсар

Пост 15-Дек-2013 16:38 (спустя 1 час 12 минут)

[Q] 

шлак шлак шлак
[Профиль]  [ЛС] 

Kraizer

Лоцман

Пост 15-Дек-2013 21:15 (спустя 4 часа)

[Q] 

А нам с женой понравилось)
[Профиль]  [ЛС] 

zvyagin_da

Пост 15-Дек-2013 23:24 (спустя 2 часа 9 минут)

[Q] 

Посмотрю для разнообразия
[Профиль]  [ЛС] 

maksimum73

Корсар

Пост 16-Дек-2013 01:24 (спустя 1 час 59 минут)

[Q] 

Дааааа ЛАЖА, заставил себя посмотреть, не смотря на коменты. Хватило на пол часа Трафик потрачен зря!
[Профиль]  [ЛС] 

prapapap

Лоцман

Пост 02-Янв-2014 17:46 (спустя 17 дней)

[Q] 

Кошмарный фильм((((
[Профиль]  [ЛС] 

kent19859

Штурман

Пост 02-Янв-2014 23:11 (спустя 5 часов)

[Q] 

фу-фу-фу Отказать
[Профиль]  [ЛС] 

Vinyard

Корсар

Пост 03-Янв-2014 00:49 (спустя 1 час 38 минут)

[Q] 

ребята! ну как так можно? вы же професионалы, а не какой-нибудь камеди клаб!
[Профиль]  [ЛС] 

metampsy

Корсар

Пост 04-Янв-2014 03:02 (спустя 1 день 2 часа)

[Q] 

Когда это закончится!!! А-А-А!!!!!!!!!! bu
[Профиль]  [ЛС] 

platon18

Гроза морей

Пост 04-Янв-2014 08:41 (спустя 5 часов)

[Q] 

хороший фильм
[Профиль]  [ЛС] 

UA4HQW

Флибустьер

2528

Пост 04-Мар-2014 17:35 (спустя 2 месяца)

[Q] 

Фильм так себе , но посмеяться можно.
Автору респект!!!
[Профиль]  [ЛС] 
Показать сообщения:    
Ответить на тему

Текущее время: Сегодня 06:12

Часовой пояс: GMT + 4



Вы не можете начинать темы
Вы не можете отвечать на сообщения
Вы не можете редактировать свои сообщения
Вы не можете удалять свои сообщения
Вы не можете голосовать в опросах
Вы не можете прикреплять файлы к сообщениям
Вы не можете скачивать файлы

▼ Вниз