ML
     
  Уважаемый Гость!
Вы можете поддержать проект и зарегистрироваться у наших партнеров - онлайн-стратегия MyLands. При регистрации в игре Вы получите код, который сможете активировать после регистрации на pirat.ca и получить 1000 дублонов.

Ваш код:
bc31d8aef74c92e19ad67e34a8fa63c3b9b812fb
 
     

Мандарины / Mandariinid (Заза Урушадзе / Zaza Urushadze) [2013 г., драма, военный, BDRip] Original (Rus, Est) + Sub (Rus, Est)

Ответить на тему
 
Автор
Сообщение

Пост 10-Дек-2013 11:14

[Q] 

aleksey99

--Мандарины / Mandariinid-- Производство: Эстония, Грузия, Allfilm
Год выпуска: 2013 г.
Жанр: драма, военный
Продолжительность: 01:26:21--Мировая премьера: 16 октября 2013--Перевод: Оригинал [Русский, Эстонский]
Примечание: Примерно 70% фильма герои общаются на русском языке. Присутствуют вшитые (хардсаб) русские субтитры на эстонскую речь (к сожалению, весьма небольшого размера) и эстонские субтитры на русскую речь.--Режиссер: Заза Урушадзе / Zaza Urushadze--В ролях: Лембит Ульфсак, Элмо Нюганен, Георгий Накашидзе, Михаил Месхи, Райво Трасс, Каха Аревадзе, Зураб Бегалишвили, Георгий Цаава--Описание: Сюжет картины повествует о событиях, развернувшихся в кавказском селе эстонских переселенцев во время Абхазской войны 1992 года, когда абхазцы боролись за отделение от Грузии. 1992 год, Абхазия. Древнее эстонское село, расположенное в живописном месте между горами и морем, опустело - эстонцы вернулись на свою историческую родину. Остались только хозяин тарного цеха Иво, его сосед, владелец мандариновой плантации Маркус и местный доктор Юхан, который уже готов покинуть селение. Маркус также собирается уехать в Эстонию, но лишь после того, как будет собран урожай мандаринов. Война доходит до села, происходит боевое столкновение между грузинами и абхазцами. После боя Иво и Маркус находят одного оставшегося в живых чеченского наёмника по имени Ахмед, который воюет на абхазской стороне. Иво забирает Ахмеда к себе домой, чтобы его вылечить. Ночью, хороня погибших, Маркус обнаруживает, что, несмотря на тяжелое ранение, в бою выжил и один грузин - молодой парень Ника. Его тоже относят в дом Иво. Так под одной крышей оказываются бойцы противоборствующих сторон...--- --Качество видео: BDRip
Контейнер: AVI
Видео кодек: XviD
Аудио кодек: AC3
Видео: 720x304 (2.37:1), 24,000 fps, XviD MPEG-4 ~2017 kbps avg, 0.38 bit/pixel
Аудио: 48 kHz, AC3 Dolby Digital, 3/2 (L,C,R,l,r) + LFE ch, ~384 kbps
Cубтитры: Эстонские (на русскую речь), Русские (на эстонскую речь) (неотключаемые)
Общее
Полное имя : H:\P9\Mandariinid.2013_[pirat.ca].avi
Формат : AVI
Формат/Информация : Audio Video Interleave
Размер файла : 1,45 Гбайт
Продолжительность : 1 ч. 26 м.
Общий поток : 2411 Кбит/сек
Программа кодирования : VirtualDubMod 1.5.10.2 (build 2540/release)
Библиотека кодирования : VirtualDub build 32842/release
Видео
Идентификатор : 0
Формат : MPEG-4 Visual
Профиль формата : Advanced [email protected]
Параметр BVOP формата : 2
Параметр QPel формата : Нет
Параметр GMC формата : Без точки перехода
Параметр матрицы формата : Default (MPEG)
Идентификатор кодека : XVID
Идентификатор кодека/Подсказка : XviD
Продолжительность : 1 ч. 26 м.
Битрейт : 2018 Кбит/сек
Ширина : 720 пикселей
Высота : 304 пикселя
Соотношение сторон : 2,35:1
Частота кадров : 24,000 кадра/сек
Цветовое пространство : YUV
Субдискретизация насыщенности : 4:2:0
Битовая глубина : 8 бит
Тип развёртки : Прогрессивная
Метод сжатия : С потерями
Бит/(Пиксели*Кадры) : 0.384
Размер потока : 1,22 Гбайт (84%)
Библиотека кодирования : XviD 64
Аудио
Идентификатор : 1
Формат : AC-3
Формат/Информация : Audio Coding 3
Расширение режима : CM (complete main)
Параметр Endianness формата : Big
Идентификатор кодека : 2000
Продолжительность : 1 ч. 26 м.
Вид битрейта : Постоянный
Битрейт : 384 Кбит/сек
Каналы : 6 каналов
Расположение каналов : Front: L C R, Side: L R, LFE
Частота : 48,0 КГц
Битовая глубина : 16 бит
Метод сжатия : С потерями
Задержка видео : 125 мс.
Размер потока : 237 Мбайт (16%)
Выравнивание : Разделение по промежуткам
Продолжительность промежутка : 42 мс. (1,00 видеокадр)
Время предзагрузки промежутка : 500 мс.
Трейлер
Внимание! В фильме присутствует ненормативная лексика!
Download / Скачать

Хотите скачать бесплатно? Зарегистрируйтесь на сайте (ссылка на регистрацию). Pirat.ca - самый быстрый торрент трекер в рунете!

Как скачивать  ·   Что такое торрент  ·   Рейтинг и ограничения

Пост 10-Дек-2013 11:39 (спустя 25 минут)

Топик был перенесен из форума Наше кино (Трюм) в форум Новинки (HD|DVD|BD| TV|SAT|PDTV| - Rips)
kugesan
 

polozm

Легенда

Пост 10-Дек-2013 14:29 (спустя 3 часа)

[Q] 

шутите? be это наверно только для обиженных на Русь нацменов cv

_________________
mac mini -2.0 GHz Intel Core i7/ 8 GB DDR3. /Intel HD 3000(512mb)OS X 10.9 Mavericks
[Профиль]  [ЛС] 

pakslava

Лоцман

Пост 11-Дек-2013 01:35 (спустя 11 часов)

[Q] 

Это типа "Кукушки" что ли сняли?
[Профиль]  [ЛС] 

Tongo

Лоцман

Пост 12-Дек-2013 19:43 (спустя 1 день 18 часов)

[Q] 

Их село называется Сальме, в Гагрнском районе.
[Профиль]  [ЛС] 

SSB

Шкипер

Пост 13-Фев-2014 14:24 (спустя 2 месяца)

[Q] 

Спасибо!!! Качаю!!!
[Профиль]  [ЛС] 

MaXoR

Флибустьер

1475

Пост 14-Июн-2015 22:43 (спустя 1 год 4 месяца)

[Q] 

Хороший фильм, смотреть стоит, ибо задумываешься о многом. Политические предрассудки во время просмотра стоит отбросить, т.к фильм о людях, попавших в сложную ситуацию, в первую очередь.

_________________
Живы будем - не помрем!
[Профиль]  [ЛС] 

helsingard

Штурман

Пост 03-Июл-2015 17:09 (спустя 18 дней)

[Q] 

На любителя Трафик потрачен зря!
[Профиль]  [ЛС] 
Показать сообщения:    
Ответить на тему

Текущее время: Сегодня 12:01

Часовой пояс: GMT + 4



Вы не можете начинать темы
Вы не можете отвечать на сообщения
Вы не можете редактировать свои сообщения
Вы не можете удалять свои сообщения
Вы не можете голосовать в опросах
Вы не можете прикреплять файлы к сообщениям
Вы не можете скачивать файлы

▼ Вниз