ML
     
  Уважаемый Гость!
Вы можете поддержать проект и зарегистрироваться у наших партнеров - онлайн-стратегия MyLands. При регистрации в игре Вы получите код, который сможете активировать после регистрации на pirat.ca и получить 1000 дублонов.

Ваш код:
1a5b0a965618b2c406d4279ec9924ee6282c60cf
 
     

Вечное возвращение (Кира Муратова) [2012, мелодрама, комедия, WEB-DLRip]

Ответить на тему
 
Автор
Сообщение

Пост 10-Дек-2013 16:08

[Q] 

aleksey99

--Вечное возвращение-- Производство: Украина
Режиссер: Кира Муратова
Жанр: мелодрама, комедия
Год выпуска: 2012 г.
Продолжительность: 01:51:24--Мировая премьера: 16 ноября 2012
Российская премьера: 3 октября 2013, «Top Film Distribution»
Релиз на DVD: 26 ноября 2013, «Lizard Cinema Trade»--В ролях: Рената Литвинова, Олег Табаков, Сергей Маковецкий, Алла Демидова, Виталий Линецкий, Наталья Бузько, Георгий Делиев, Ута Кильтер, Юрий Невгамонный, Геннадий Скарга--Описание: Герои фильма — мужчина и женщина, не встречавшиеся много лет. Пришел мужчина к женщине. Пришел в шляпе, да так волновался, что забыл ее снять. Они однокурсники, не виделись сто лет, он и живет давно в другом городе, а сюда приехал в командировку. И сразу к ней, с вопросом: как поделить себя между женой и любовницей? Ни один совет не звучит убедительно: он любит обеих, но жить с обеими не в состоянии. Озлившись, визитер хлопает дверью. Но приходит вновь, ведь других знакомых в этом городе у него нет. И возвращается. И возвращается.--
--Качество видео: WEB-DLRip
Контейнер: AVI
Видео кодек: XviD
Аудио кодек: AC3
Видео: 720x384 (1.88:1), 25 fps, XviD build 50 ~1669 kbps avg, 0.24 bit/pixel
Аудио: 44.1 kHz, AC3 Dolby Digital, 2/0 (L,R) ch, ~192 kbps
Cубтитры: Отсутствуют
Общее
Полное имя : H:\Torrent2\Vechnoe.vozvrashhenie.2012.WEBDLRip_[pirat.ca].avi
Формат : AVI
Формат/Информация : Audio Video Interleave
Размер файла : 1,46 Гбайт
Продолжительность : 1 ч. 51 м.
Общий поток : 1871 Кбит/сек
Программа кодирования : VirtualDubMod 1.5.10.3 | www.virtualdub-fr.org || (build 2550/release)
Библиотека кодирования : VirtualDubMod build 2550/release
Видео
Идентификатор : 0
Формат : MPEG-4 Visual
Профиль формата : Advanced [email protected]
Параметр BVOP формата : 1
Параметр QPel формата : Нет
Параметр GMC формата : Без точки перехода
Параметр матрицы формата : Выборочная
Идентификатор кодека : XVID
Идентификатор кодека/Подсказка : XviD
Продолжительность : 1 ч. 51 м.
Битрейт : 1670 Кбит/сек
Ширина : 720 пикселей
Высота : 384 пикселя
Соотношение сторон : 1,85:1
Частота кадров : 25,000 кадров/сек
Цветовое пространство : YUV
Субдискретизация насыщенности : 4:2:0
Битовая глубина : 8 бит
Тип развёртки : Прогрессивная
Метод сжатия : С потерями
Бит/(Пиксели*Кадры) : 0.242
Размер потока : 1,30 Гбайт (89%)
Библиотека кодирования : XviD 1.2.1 (UTC 2008-12-04)
Аудио
Идентификатор : 1
Формат : AC-3
Формат/Информация : Audio Coding 3
Расширение режима : CM (complete main)
Параметр Endianness формата : Big
Идентификатор кодека : 2000
Продолжительность : 1 ч. 51 м.
Вид битрейта : Постоянный
Битрейт : 192 Кбит/сек
Каналы : 2 канала
Расположение каналов : Front: L R
Частота : 44,1 КГц
Битовая глубина : 16 бит
Метод сжатия : С потерями
Размер потока : 153 Мбайт (10%)
Выравнивание : Разделение по промежуткам
Продолжительность промежутка : 40 мс. (1,00 видеокадр)
Время предзагрузки промежутка : 500 мс.
Download / Скачать

Хотите скачать бесплатно? Зарегистрируйтесь на сайте (ссылка на регистрацию). Pirat.ca - самый быстрый торрент трекер в рунете!

Как скачивать  ·   Что такое торрент  ·   Рейтинг и ограничения

Дядя Витя

53904

Пост 10-Дек-2013 17:16 (спустя 1 час 8 минут)

[Q] 

С. Стиллавин его не так давно хвалил ...
Раздающему респект!

_________________
?
[Профиль]  [ЛС] 

Пост 10-Дек-2013 19:47 (спустя 2 часа 31 минута)

Топик был перенесен из форума Наше кино (Трюм) в форум Новинки (HD|DVD|BD| TV|SAT|PDTV| - Rips)
kugesan
 

polozm

Легенда

Пост 11-Дек-2013 15:08 (спустя 21 час)

[Q] 

460704С. Стиллавин его не так давно хвалил ...
Раздающему респект!
а кто это? :)

_________________
mac mini -2.0 GHz Intel Core i7/ 8 GB DDR3. /Intel HD 3000(512mb)OS X 10.9 Mavericks
[Профиль]  [ЛС] 
Показать сообщения:    
Ответить на тему

Текущее время: Сегодня 23:46

Часовой пояс: GMT + 4



Вы не можете начинать темы
Вы не можете отвечать на сообщения
Вы не можете редактировать свои сообщения
Вы не можете удалять свои сообщения
Вы не можете голосовать в опросах
Вы не можете прикреплять файлы к сообщениям
Вы не можете скачивать файлы

▼ Вниз