ML
     
  Уважаемый Гость!
Вы можете поддержать проект и зарегистрироваться у наших партнеров - онлайн-стратегия MyLands. При регистрации в игре Вы получите код, который сможете активировать после регистрации на pirat.ca и получить 1000 дублонов.

Ваш код:
dbd0d701284cde74a1f34d06ce20b7bc75a73e75
 
     

Три мушкетера (Сергей Жигунов) [2013 г., приключения, DVDRip][Лицензия]

Ответить на тему
 
Автор
Сообщение

Пост 10-Дек-2013 19:45

[Q] 

aleksey99

--Три мушкетера--«Всё за любовь!»-- Производство: Россия
Режиссер: Сергей Жигунов
Жанр: приключения
Год выпуска: 2013 г.
Продолжительность: 01:58:34--Мировая премьера: 14 ноября 2013
Российская премьера: 14 ноября 2013, «Каропрокат»
Релиз на DVD: 9 декабря 2013, «Новый Диск»
Релиз на Blu-Ray: Январь 2014, «Новый Диск»--В ролях: Риналь Мухаметов, Юрий Чурсин, Алексей Макаров, Павел Баршак, Екатерина Вилкова, Анна Старшенбаум, Василий Лановой, Филипп Янковский, Константин Лавроненко, Мария Миронова--Описание: «Три мушкетера» — это история о юном гасконце Д’Артаньяне, который, не познав всех радостей любви, оказывается втянут в водоворот политических интриг королевского двора Людовика XIII. В роте королевских мушкетеров Де Тревиля он находит себе верных друзей Атоса, Портоса и Арамиса.
Мушкетеры настолько поражены кипучей энергией гасконца и его умением находить неприятности, что принимают самое живое участие не только в многочисленных стычках с гвардейцами кардинала, но и в личной судьбе Д’Артаньяна.
Благодаря друзьям Д’Артаньян находит свою первую любовь — Констанцию Бонасье и ввязывается в опаснейшую историю с подвесками Королевы. Тонкий и дальновидный политик кардинал Ришелье и его подручные Рошфор и Миледи обретают в лице Д’Артаньяна опаснейшего врага. Во имя любви он готов на самые отчаянные подвиги. На пути Д’Артаньяна немало опасных соблазнов и искушений. Но он их все преодолеет, не предав своей дружбы и любви!-- --Качество видео: DVDRip
Контейнер: AVI
Видео кодек: XviD
Аудио кодек: AC3
Видео: 720x400 (1.80:1), 25 fps, XviD build 73 ~1303 kbps avg, 0.18 bit/pixel
Аудио: 48 kHz, AC3 Dolby Digital, 3/2 (L,C,R,l,r) + LFE ch, ~448 kbps
Cубтитры: отсутствуют

Общее
Полное имя : H:\P9\Tri.mushketera.2013.O.DVDRip.1400Mb_[pirat.ca].avi
Формат : AVI
Формат/Информация : Audio Video Interleave
Размер файла : 1,46 Гбайт
Продолжительность : 1 ч. 58 м.
Общий поток : 1761 Кбит/сек
Программа кодирования : VirtualDubMod 1.5.10.3 | www.virtualdub-fr.org || (build 2550/release)
Библиотека кодирования : VirtualDubMod build 2550/release
Видео
Идентификатор : 0
Формат : MPEG-4 Visual
Профиль формата : Advanced [email protected]
Параметр BVOP формата : 1
Параметр QPel формата : Нет
Параметр GMC формата : Без точки перехода
Параметр матрицы формата : Default (MPEG)
Идентификатор кодека : XVID
Идентификатор кодека/Подсказка : XviD
Продолжительность : 1 ч. 58 м.
Битрейт : 1303 Кбит/сек
Ширина : 720 пикселей
Высота : 400 пикселей
Соотношение сторон : 16:9
Частота кадров : 25,000 кадров/сек
Цветовое пространство : YUV
Субдискретизация насыщенности : 4:2:0
Битовая глубина : 8 бит
Тип развёртки : Прогрессивная
Метод сжатия : С потерями
Бит/(Пиксели*Кадры) : 0.181
Размер потока : 1,08 Гбайт (74%)
Библиотека кодирования : XviD 73
Аудио
Идентификатор : 1
Формат : AC-3
Формат/Информация : Audio Coding 3
Расширение режима : CM (complete main)
Параметр Endianness формата : Big
Идентификатор кодека : 2000
Продолжительность : 1 ч. 58 м.
Вид битрейта : Постоянный
Битрейт : 448 Кбит/сек
Каналы : 6 каналов
Расположение каналов : Front: L C R, Side: L R, LFE
Частота : 48,0 КГц
Битовая глубина : 16 бит
Метод сжатия : С потерями
Размер потока : 380 Мбайт (25%)
Выравнивание : Разделение по промежуткам
Продолжительность промежутка : 40 мс. (1,00 видеокадр)
Время предзагрузки промежутка : 500 мс.
Трейлер
Download / Скачать

Хотите скачать бесплатно? Зарегистрируйтесь на сайте (ссылка на регистрацию). Pirat.ca - самый быстрый торрент трекер в рунете!

Как скачивать  ·   Что такое торрент  ·   Рейтинг и ограничения

Пост 10-Дек-2013 20:17 (спустя 31 минута)

Топик был перенесен из форума Наше кино (Трюм) в форум Новинки (HD|DVD|BD| TV|SAT|PDTV| - Rips)
kugesan
 

Dysy

Морской Волк

Пост 11-Дек-2013 00:38 (спустя 4 часа)

[Q] 

помогу с раздачей Всем качать!!! Супер!
[Профиль]  [ЛС] 

DoktorRUS

Шкипер

Пост 11-Дек-2013 00:58 (спустя 20 минут)

[Q] 

как фильм? кто может поделиться впечатлениями?
[Профиль]  [ЛС] 

Ahzool

Корсар

Пост 11-Дек-2013 02:30 (спустя 1 час 31 минута)

[Q] 

Д`Артаньян и три мушкетера 1979 года, на два порядка выше, хотя снято не дурно, но есть провалы по свету, про игру актерского состава промолчу, фильм на 2+кустарщина.... Раздающему респект!

_________________
Si non es occupatus quid natum moriendo occupatus es,beauty creatur vultus.
[Профиль]  [ЛС] 

Alpos2008

Штурман

Пост 11-Дек-2013 06:09 (спустя 3 часа)

[Q] 

это пипец, товарищи, а не кино
0 из 10
[Профиль]  [ЛС] 

Максимус666

Морской Волк

Пост 11-Дек-2013 10:25 (спустя 4 часа)

[Q] 

это Жигунов снимал,а не Стивен Спилберг anime49 Даже не буду и скачивать это г...

_________________
Тысяча чертей!
[Профиль]  [ЛС] 

Figur

Штурман

Пост 11-Дек-2013 11:28 (спустя 1 час 2 минуты)

[Q] 

в сравнении конечно проигрывает советскому фильму. можно даже и не смотреть этот.
[Профиль]  [ЛС] 

Sergi4

Гроза морей

Пост 11-Дек-2013 11:37 (спустя 9 минут)

[Q] 

Спасибо!!! На любителя
[Профиль]  [ЛС] 

lkjhgfdsa

Лоцман

Пост 11-Дек-2013 12:50 (спустя 1 час 12 минут)

[Q] 

Как качество?
[Профиль]  [ЛС] 

watsonix

Флибустьер

Пост 11-Дек-2013 13:41 (спустя 50 минут)

[Q] 

Мне понравилось
[Профиль]  [ЛС] 

Gylyr

Лоцман

Пост 11-Дек-2013 13:53 (спустя 12 минут)

[Q] 

Мда... Гуано редкостное...
[Профиль]  [ЛС] 

eagle26

Шкипер

Пост 16-Дек-2013 08:21 (спустя 4 дня)

[Q] 

На любителя снято не дурно ,но актеры -не тянет повозку! Раздающему респект!
[Профиль]  [ЛС] 

krezzim

Шкипер

13

Пост 02-Янв-2014 19:57 (спустя 17 дней)

[Q] 

На любителя на разок пойдет, если нечем заняться)))
[Профиль]  [ЛС] 

post_aleks

Шкипер

689

Пост 18-Янв-2014 18:28 (спустя 15 дней)

[Q] 

В сравнении с "Наше Новое Кино" - совсем неплохо...
Но до "наших любимых старых" мушкетеров не дотягивает...
Одна из причин - просто не то восприятие актёров, хотя судя по фильму - стараются и игра неплоха... Но мы же постоянно сравниваем, критикуем... Но где взять молодых и полюбившихся Леонова, Вицина, Боярского, Никулина и других.. Их нет! Их надо растить!!! Но где им расти как не на съёмках? Надо отдать должное подбору актёров, работа сделана на совесть, правда я бы Констанцию другую взял и миледи.
Моё мнение по актерам: время покажет!
Моё мнение по фильму - хорошо.

_________________
Идеального мужчину можно встретить на каждом углу - сказал Бог, и создал Землю круглой...
[Профиль]  [ЛС] 

krezzim

Шкипер

13

Пост 27-Янв-2014 16:28 (спустя 8 дней)

[Q] 

На любителя Трафик потрачен зря!
[Профиль]  [ЛС] 

Тошик

Морской Волк

Пост 01-Фев-2014 23:51 (спустя 5 дней)

[Q] 

Спасибо!!! Пиратка рулит!
[Профиль]  [ЛС] 

hohol541

Корсар

Пост 07-Фев-2014 12:51 (спустя 5 дней)

[Q] 

Что-то как-то непривычно............. Говнецо редкостное.
[Профиль]  [ЛС] 
Показать сообщения:    
Ответить на тему

Текущее время: Сегодня 18:33

Часовой пояс: GMT + 4



Вы не можете начинать темы
Вы не можете отвечать на сообщения
Вы не можете редактировать свои сообщения
Вы не можете удалять свои сообщения
Вы не можете голосовать в опросах
Вы не можете прикреплять файлы к сообщениям
Вы не можете скачивать файлы

▼ Вниз